<?xml version="1.0" standalone="no"?>
<!DOCTYPE svg PUBLIC "-//W3C//DTD SVG 1.1//EN" "http://www.w3.org/Graphics/SVG/1.1/DTD/svg11.dtd" >
<svg xmlns="http://www.w3.org/2000/svg" xmlns:xlink="http://www.w3.org/1999/xlink" version="1.1">
<metadata>
Created by FontForge 20201107 at Fri May  5 13:18:43 2017
 By Jimmy Wärting
Copyright (c) 2015 Indian Type Foundry (info@indiantypefoundry.com)
</metadata>
<defs>
<font id="HindMadurai-Bold" horiz-adv-x="580" >
  <font-face 
    font-family="Hind Madurai"
    font-weight="700"
    font-stretch="normal"
    units-per-em="1000"
    panose-1="2 0 0 0 0 0 0 0 0 0"
    ascent="800"
    descent="-200"
    x-height="507"
    cap-height="674"
    bbox="-373 -398 2670.01 982"
    underline-thickness="50"
    underline-position="-150"
    unicode-range="U+0020-FB02"
  />
<missing-glyph horiz-adv-x="756" 
d="M596 0h-436v701h436v-701zM241 625v-549h275v549h-275z" />
    <glyph glyph-name=".notdef" horiz-adv-x="756" 
d="M596 0h-436v701h436v-701zM241 625v-549h275v549h-275z" />
    <glyph glyph-name=".null" horiz-adv-x="0" 
 />
    <glyph glyph-name="nonmarkingreturn" horiz-adv-x="333" 
 />
    <glyph glyph-name="space" unicode=" " horiz-adv-x="250" 
 />
    <glyph glyph-name="exclam" unicode="!" horiz-adv-x="289" 
d="M214 236h-139v438h139v-438zM234 83q0 -38 -26.5 -64.5t-64.5 -26.5t-64.5 26.5t-26.5 64.5t26.5 64.5t64.5 26.5t64.5 -26.5t26.5 -64.5z" />
    <glyph glyph-name="quotedbl" unicode="&#x22;" horiz-adv-x="387" 
d="M347 420h-122v261h122v-261zM162 420h-122v261h122v-261z" />
    <glyph glyph-name="numbersign" unicode="#" horiz-adv-x="757" 
d="M496 0h-123l32 154h-136l-33 -154h-123l32 154h-100v111h124l28 135h-118v116h143l33 157h124l-33 -157h136l33 157h124l-33 -157h106v-116h-131l-29 -135h126v-111h-149zM429 265l28 135h-136l-29 -135h137z" />
    <glyph glyph-name="dollar" unicode="$" horiz-adv-x="514" 
d="M299 -118h-121v113q-83 8 -138 39v155q91 -66 194 -66q35 0 58 18.5t23 48.5q0 10 -3 19t-11 17t-15.5 13.5t-22 13t-24.5 12.5t-29.5 14t-31.5 14q-65 30 -104.5 74t-39.5 117q0 77 51 128.5t142 62.5v115h122v-117q53 -8 100 -29v-144q-81 47 -168 47q-39 0 -59.5 -16
t-20.5 -41t25 -44.5t75 -41.5q31 -14 51.5 -24.5t47 -29t42 -39t26.5 -50.5t11 -65q0 -76 -48.5 -129t-131.5 -69v-116z" />
    <glyph glyph-name="percent" unicode="%" horiz-adv-x="973" 
d="M358 -1h-131l379 708h132zM425 532q0 -79 -55.5 -134.5t-134.5 -55.5t-134.5 55.5t-55.5 134.5t55.5 134.5t134.5 55.5t134.5 -55.5t55.5 -134.5zM162 532q0 -30 21.5 -51.5t51.5 -21.5t51.5 21.5t21.5 51.5t-21.5 51.5t-51.5 21.5t-51.5 -21.5t-21.5 -51.5zM928 182
q0 -79 -55.5 -134.5t-134.5 -55.5t-134.5 55.5t-55.5 134.5t55.5 134.5t134.5 55.5t134.5 -55.5t55.5 -134.5zM665 182q0 -30 21.5 -51.5t51.5 -21.5t51.5 21.5t21.5 51.5t-21.5 51.5t-51.5 21.5t-51.5 -21.5t-21.5 -51.5z" />
    <glyph glyph-name="ampersand" unicode="&#x26;" horiz-adv-x="742" 
d="M272 504q0 -44 69 -113q75 41 75 101q0 37 -20.5 57t-56.5 20q-29 0 -48 -17t-19 -48zM737 0h-179l-39 39q-81 -47 -184 -47q-132 0 -208.5 56t-76.5 136q0 124 142 170q-68 75 -68 148q0 89 61 137.5t154 48.5q105 0 164.5 -49.5t59.5 -138.5q0 -59 -33.5 -104.5
t-108.5 -83.5l98 -96q18 39 18 85h131q0 -100 -56 -178zM336 112q47 0 89 18l-127 124q-3 3 -9.5 9t-10.5 10q-46 -16 -62.5 -36t-16.5 -48q0 -34 39 -55.5t98 -21.5z" />
    <glyph glyph-name="quotesingle" unicode="'" horiz-adv-x="202" 
d="M162 420h-122v261h122v-261z" />
    <glyph glyph-name="parenleft" unicode="(" horiz-adv-x="338" 
d="M358 -196h-155q-163 203 -163 455q0 260 157 448h151q-73 -89 -113.5 -216t-40.5 -236q0 -106 42 -229.5t122 -221.5z" />
    <glyph glyph-name="parenright" unicode=")" horiz-adv-x="338" 
d="M135 -196h-155q80 98 122 221.5t42 229.5q0 109 -40.5 236t-113.5 216h151q157 -188 157 -448q0 -252 -163 -455z" />
    <glyph glyph-name="asterisk" unicode="*" horiz-adv-x="508" 
d="M431 312l-96 -69l-57 79q-16 22 -22 43q-8 -19 -24 -42l-59 -80l-95 70l58 79q15 20 35 35q-23 0 -49 9l-94 31l37 112l93 -30q26 -9 45 -23q-7 24 -7 50v98h118v-98q0 -28 -8 -50q17 13 45 22l94 30l36 -112l-92 -30q-25 -8 -50 -8h-2q23 -17 36 -36z" />
    <glyph glyph-name="plus" unicode="+" horiz-adv-x="589" 
d="M544 274h-183v-180h-134v180h-182v130h182v181h134v-181h183v-130z" />
    <glyph glyph-name="comma" unicode="," horiz-adv-x="294" 
d="M119 -127h-126l101 261h161z" />
    <glyph glyph-name="hyphen" unicode="-" horiz-adv-x="357" 
d="M312 202h-267v120h267v-120z" />
    <glyph glyph-name="period" unicode="." horiz-adv-x="258" 
d="M218 81q0 -37 -26 -63t-63 -26t-63 26t-26 63t26 63t63 26t63 -26t26 -63z" />
    <glyph glyph-name="slash" unicode="/" horiz-adv-x="464" 
d="M149 -103h-151l359 810h152z" />
    <glyph glyph-name="zero" unicode="0" horiz-adv-x="547" 
d="M512 330q0 -154 -60.5 -246t-178.5 -92t-178 91.5t-60 246.5q0 156 60 247t178 91t178.5 -91t60.5 -247zM184 330q0 -208 89 -208q90 0 90 208t-90 208q-89 0 -89 -208z" />
    <glyph glyph-name="one" unicode="1" horiz-adv-x="380" 
d="M320 0h-145v497l-165 -99v149l184 107h126v-654z" />
    <glyph glyph-name="two" unicode="2" horiz-adv-x="501" 
d="M466 0h-436v113q108 74 190.5 164t82.5 159q0 42 -25 66.5t-76 24.5q-85 0 -161 -63v141q33 24 86 41t104 17q102 0 162.5 -53.5t60.5 -149.5q0 -173 -220 -336h232v-124z" />
    <glyph glyph-name="three" unicode="3" horiz-adv-x="483" 
d="M448 180q0 -84 -63.5 -134.5t-177.5 -50.5q-107 0 -177 34v140q80 -44 165 -44q49 0 76.5 21t27.5 53q0 73 -135 73h-35v120h35q53 0 87 18t34 54q0 69 -90 69q-69 0 -139 -43v136q74 37 149 37q106 0 168 -50.5t62 -131.5q0 -111 -101 -153q114 -27 114 -148z" />
    <glyph glyph-name="four" unicode="4" horiz-adv-x="562" 
d="M173 263h144v296zM462 0h-145v139h-287v124l200 393h232v-393h80v-124h-80v-139z" />
    <glyph glyph-name="five" unicode="5" horiz-adv-x="500" 
d="M470 219q0 -102 -67.5 -163.5t-191.5 -61.5q-109 0 -176 35v138q68 -42 152 -42q134 0 134 96q0 36 -27.5 57t-82.5 21q-77 0 -148 -33v390h367v-124h-225v-111q22 3 44 3q107 0 164 -55t57 -150z" />
    <glyph glyph-name="six" unicode="6" horiz-adv-x="537" 
d="M512 212q0 -99 -62.5 -165.5t-170.5 -66.5q-121 0 -182.5 86.5t-61.5 232.5q0 167 91.5 267t231.5 100q53 0 103 -16v-135q-39 21 -91 21q-71 0 -116.5 -43.5t-61.5 -116.5q54 46 129 46q86 0 138.5 -57t52.5 -153zM280 110q39 0 61 27t22 72q0 41 -21.5 65.5t-60.5 24.5
q-54 0 -95 -43q11 -146 94 -146z" />
    <glyph glyph-name="seven" unicode="7" horiz-adv-x="480" 
d="M206 0h-154l255 531h-287v124h440v-124z" />
    <glyph glyph-name="eight" unicode="8" horiz-adv-x="545" 
d="M510 182q0 -86 -66.5 -139t-173.5 -53q-108 0 -171.5 50.5t-63.5 136.5q0 106 95 153q-85 49 -85 141t63.5 143.5t161.5 51.5q102 0 165.5 -49t63.5 -146q0 -90 -82 -138q93 -43 93 -151zM181 181q0 -31 21.5 -53t68.5 -22q46 0 69.5 22.5t23.5 54.5q0 36 -24.5 59
t-68.5 23q-45 0 -67.5 -25t-22.5 -59zM192 473q0 -38 23 -59t58 -21q34 0 57 21t23 59q0 77 -83 77q-40 0 -59 -22.5t-19 -54.5z" />
    <glyph glyph-name="nine" unicode="9" horiz-adv-x="533" 
d="M254 346q60 0 97 45q-12 142 -96 142q-39 0 -62.5 -25t-23.5 -70q0 -40 23 -66t62 -26zM498 348q0 -179 -85 -267.5t-227 -88.5q-68 0 -119 19v138q52 -25 103 -25q78 0 121 35.5t56 111.5q-43 -43 -130 -43q-88 0 -142.5 56.5t-54.5 150.5q0 98 61.5 163t166.5 65
q117 0 183.5 -84.5t66.5 -230.5z" />
    <glyph glyph-name="colon" unicode=":" horiz-adv-x="286" 
d="M231 419q0 -37 -25.5 -62.5t-62.5 -25.5t-62.5 25.5t-25.5 62.5t25.5 62.5t62.5 25.5t62.5 -25.5t25.5 -62.5zM231 88q0 -37 -25.5 -62.5t-62.5 -25.5t-62.5 25.5t-25.5 62.5t25.5 62.5t62.5 25.5t62.5 -25.5t25.5 -62.5z" />
    <glyph glyph-name="semicolon" unicode=";" horiz-adv-x="294" 
d="M119 -127h-126l101 261h161zM249 419q0 -37 -25.5 -62.5t-62.5 -25.5t-62.5 25.5t-25.5 62.5t25.5 62.5t62.5 25.5t62.5 -25.5t25.5 -62.5z" />
    <glyph glyph-name="less" unicode="&#x3c;" horiz-adv-x="589" 
d="M544 237v-144l-499 178v138l499 178v-144l-354 -103z" />
    <glyph glyph-name="equal" unicode="=" horiz-adv-x="589" 
d="M544 394h-499v120h499v-120zM544 166h-499v120h499v-120z" />
    <glyph glyph-name="greater" unicode="&#x3e;" horiz-adv-x="589" 
d="M544 271l-499 -178v144l354 103l-354 103v144l499 -178v-138z" />
    <glyph glyph-name="question" unicode="?" horiz-adv-x="458" 
d="M262 236h-133l-3 151q154 0 154 94q0 36 -21.5 57.5t-63.5 21.5q-65 0 -130 -43v137q60 28 153 28q94 0 152 -49.5t58 -133.5q0 -45 -18 -81.5t-45 -57t-53 -31.5t-47 -11zM285 83q0 -38 -26.5 -64.5t-64.5 -26.5t-64.5 26.5t-26.5 64.5t26.5 64.5t64.5 26.5t64.5 -26.5
t26.5 -64.5z" />
    <glyph glyph-name="at" unicode="@" horiz-adv-x="977" 
d="M664 -175q-92 -41 -196 -41q-134 0 -233 58.5t-147 151.5t-48 206q0 129 65 238t175 171t239 62q112 0 207.5 -46t155.5 -137.5t60 -210.5q0 -118 -59.5 -197.5t-143.5 -79.5q-118 0 -153 109q-20 -53 -60.5 -80.5t-91.5 -27.5q-81 0 -128 61.5t-47 150.5q0 104 61 167.5
t144 63.5q81 0 120 -73q4 49 5 71h116l-1 -20q-12 -180 -12 -201q0 -108 51 -108q35 0 57 41.5t22 112.5q0 142 -86.5 214t-221.5 72q-103 0 -183.5 -51.5t-121.5 -132.5t-41 -173q0 -135 86 -214.5t213 -79.5q105 0 201 46zM476 105q34 0 62.5 26t37.5 73q0 6 0.5 20
t0.5 20q-6 47 -31 71.5t-58 24.5q-42 0 -71.5 -35t-29.5 -98q0 -46 26.5 -74t62.5 -28z" />
    <glyph glyph-name="A" unicode="A" horiz-adv-x="690" 
d="M269 286l-7 -24h162l-7 24q-29 98 -47.5 167t-22.5 89l-4 20q-8 -55 -74 -276zM184 0h-161l225 674h194l225 -674h-165l-41 138h-236z" />
    <glyph glyph-name="B" unicode="B" horiz-adv-x="605" 
d="M356 0h-291v674h262q111 0 169 -52.5t58 -133.5q0 -53 -28 -93t-73 -54q117 -35 117 -158q0 -80 -57.5 -131.5t-156.5 -51.5zM301 551h-82v-151h57q60 0 90.5 22t30.5 58q0 71 -96 71zM301 279h-82v-156h81q114 0 114 78t-113 78z" />
    <glyph glyph-name="C" unicode="C" horiz-adv-x="613" 
d="M563 30q-61 -38 -176 -38q-148 0 -247.5 95.5t-99.5 247.5q0 154 96.5 251t251.5 97q114 0 175 -38v-148q-75 46 -167 46q-81 0 -136 -56.5t-55 -151.5q0 -93 55 -147.5t142 -54.5q94 0 161 48v-151z" />
    <glyph glyph-name="D" unicode="D" horiz-adv-x="683" 
d="M295 0h-230v674h232q152 0 249 -93.5t97 -232.5q0 -162 -95.5 -255t-252.5 -93zM292 547h-69v-421h70q93 0 143.5 58t50.5 164q0 90 -51 144.5t-144 54.5z" />
    <glyph glyph-name="E" unicode="E" horiz-adv-x="544" 
d="M484 0h-419v674h415v-123h-260v-153h232v-122h-232v-153h264v-123z" />
    <glyph glyph-name="F" unicode="F" horiz-adv-x="506" 
d="M443 254h-223v-254h-155v674h411v-123h-256v-174h223v-123z" />
    <glyph glyph-name="G" unicode="G" horiz-adv-x="706" 
d="M646 62q-96 -70 -242 -70q-162 0 -263 93t-101 253q0 158 105.5 253t267.5 95q114 0 197 -42v-154q-96 55 -197 55q-95 0 -151 -56.5t-56 -150.5q0 -95 55 -151t150 -56q43 0 85 13v127h-109v131h259v-340z" />
    <glyph glyph-name="H" unicode="H" horiz-adv-x="686" 
d="M621 0h-155v269h-247v-269h-154v674h154v-274h247v274h155v-674z" />
    <glyph glyph-name="I" unicode="I" horiz-adv-x="304" 
d="M229 0h-154v674h154v-674z" />
    <glyph glyph-name="J" unicode="J" horiz-adv-x="392" 
d="M332 204q0 -97 -51.5 -151t-143.5 -54q-69 0 -107 20v136q37 -23 77 -23q71 0 71 76v465h154v-469z" />
    <glyph glyph-name="K" unicode="K" horiz-adv-x="662" 
d="M645 0h-193l-226 335l218 339h183l-221 -337zM219 0h-154v674h154v-674z" />
    <glyph glyph-name="L" unicode="L" horiz-adv-x="488" 
d="M468 0h-403v674h154v-539h249v-135z" />
    <glyph glyph-name="M" unicode="M" horiz-adv-x="893" 
d="M204 0h-154l58 674h169l94 -244q24 -61 41 -112t22 -72l5 -20q16 66 70 204l95 244h169l70 -674h-154l-25 261l-13 197q-26 -75 -72 -197l-95 -254h-91l-94 254q-23 62 -39 111t-21 68l-5 18q0 -71 -9 -197z" />
    <glyph glyph-name="N" unicode="N" horiz-adv-x="697" 
d="M219 0h-154v674h169l157 -279q33 -59 57.5 -110.5t31.5 -72.5l8 -22q-10 74 -10 205v279h154v-674h-169l-161 279q-32 54 -56.5 106.5t-33.5 77.5l-8 25q15 -90 15 -209v-279z" />
    <glyph glyph-name="O" unicode="O" horiz-adv-x="736" 
d="M696 339q0 -155 -89.5 -250.5t-238.5 -95.5q-150 0 -239 95t-89 251q0 155 89.5 250.5t238.5 95.5q150 0 239 -95t89 -251zM205 339q0 -95 44 -150.5t119 -55.5t119 55.5t44 150.5t-44 150.5t-119 55.5t-119 -55.5t-44 -150.5z" />
    <glyph glyph-name="P" unicode="P" horiz-adv-x="563" 
d="M297 218h-78v-218h-154v674h232q112 0 181.5 -63t69.5 -160q0 -111 -72.5 -172t-178.5 -61zM279 551h-60v-211h51q122 0 122 111q0 100 -113 100z" />
    <glyph glyph-name="Q" unicode="Q" horiz-adv-x="741" 
d="M696 339q0 -106 -43 -186t-121 -122l206 -115l-175 -67l-199 144q-148 1 -236 96t-88 250t89.5 250.5t238.5 95.5q150 0 239 -95t89 -251zM205 339q0 -95 44 -150.5t119 -55.5t119 55.5t44 150.5t-44 150.5t-119 55.5t-119 -55.5t-44 -150.5z" />
    <glyph glyph-name="R" unicode="R" horiz-adv-x="614" 
d="M295 549h-76v-190h73q100 0 100 98q0 43 -26 67.5t-71 24.5zM219 0h-154v674h233q113 0 181.5 -60t68.5 -156q0 -144 -123 -199l171 -259h-184l-146 234h-47v-234z" />
    <glyph glyph-name="S" unicode="S" horiz-adv-x="514" 
d="M484 196q0 -91 -67 -147.5t-178 -56.5q-119 0 -194 42v155q91 -66 194 -66q35 0 58 18.5t23 48.5q0 10 -3 19t-11 17t-15.5 13.5t-22 13t-24.5 12.5t-29.5 14t-31.5 14q-65 30 -104.5 74t-39.5 117q0 87 64 140.5t177 53.5q101 0 174 -34v-144q-81 47 -168 47
q-39 0 -59.5 -16t-20.5 -41t25 -44.5t75 -41.5q31 -14 51.5 -24.5t47 -29t42 -39t26.5 -50.5t11 -65z" />
    <glyph glyph-name="T" unicode="T" horiz-adv-x="544" 
d="M514 550h-164v-550h-155v550h-165v124h484v-124z" />
    <glyph glyph-name="U" unicode="U" horiz-adv-x="668" 
d="M608 261q0 -132 -74 -201.5t-200 -69.5q-124 0 -199 69t-75 195v420h154v-419q0 -125 120 -125t120 130v414h154v-413z" />
    <glyph glyph-name="V" unicode="V" horiz-adv-x="659" 
d="M413 0h-170l-224 674h166l81 -269q22 -72 38 -138.5t21 -96.5l5 -31q16 104 65 266l81 269h164z" />
    <glyph glyph-name="W" unicode="W" horiz-adv-x="971" 
d="M372 0h-172l-181 674h162l62 -248q20 -80 33 -144.5t16 -89.5l4 -24q17 78 68 258l67 238h114l66 -238q21 -75 37.5 -139.5t22.5 -91.5l6 -27q13 89 56 259l62 247h157l-180 -674h-172l-59 213q-21 77 -34.5 130t-16.5 68l-2 15q-3 -41 -54 -213z" />
    <glyph glyph-name="X" unicode="X" horiz-adv-x="663" 
d="M213 0h-186l213 342l-203 332h179l112 -197l107 197h188l-204 -333l217 -341h-183l-122 210z" />
    <glyph glyph-name="Y" unicode="Y" horiz-adv-x="643" 
d="M397 0h-154v247l-230 427h180l41 -98q32 -76 53 -130t27 -70l5 -16q10 45 88 216l44 98h179l-233 -426v-248z" />
    <glyph glyph-name="Z" unicode="Z" horiz-adv-x="621" 
d="M561 0h-501v113l302 437h-296v124h483v-109l-304 -441h316v-124z" />
    <glyph glyph-name="bracketleft" unicode="[" horiz-adv-x="363" 
d="M348 -196h-283v903h283v-127h-145v-648h145v-128z" />
    <glyph glyph-name="backslash" unicode="\" horiz-adv-x="464" 
d="M466 -103h-151l-360 810h152z" />
    <glyph glyph-name="bracketright" unicode="]" horiz-adv-x="363" 
d="M298 -196h-283v128h145v648h-145v127h283v-903z" />
    <glyph glyph-name="asciicircum" unicode="^" horiz-adv-x="491" 
d="M168 332h-135l151 262h123l151 -262h-135l-77 146z" />
    <glyph glyph-name="underscore" unicode="_" horiz-adv-x="546" 
d="M526 -166h-506v121h506v-121z" />
    <glyph glyph-name="grave" unicode="`" horiz-adv-x="500" 
d="M366 621h-121l-111 177h146z" />
    <glyph glyph-name="a" unicode="a" horiz-adv-x="516" 
d="M246 100q31 0 48 19t17 52v37h-47q-37 0 -57 -16t-20 -41q0 -51 59 -51zM318 62q-32 -65 -126 -65q-74 0 -115.5 42t-41.5 105q0 73 53.5 113.5t158.5 40.5h64v35q0 64 -85 64q-82 0 -152 -46v131q60 34 173 34q108 0 161 -46.5t53 -144.5v-325h-143v62z" />
    <glyph glyph-name="b" unicode="b" horiz-adv-x="611" 
d="M206 0h-146v707h146v-278q52 84 151 84q95 0 157 -69t62 -189q0 -107 -59.5 -184t-158.5 -77q-101 0 -152 85v-79zM206 259q0 -65 31 -104t81 -39q46 0 78 37.5t32 98.5q0 66 -31.5 103t-77.5 37t-79.5 -35t-33.5 -98z" />
    <glyph glyph-name="c" unicode="c" horiz-adv-x="469" 
d="M439 24q-59 -32 -142 -32q-114 0 -188 72.5t-74 187.5q2 114 74 188.5t197 74.5q77 0 133 -29v-125q-53 33 -118 33q-61 0 -99 -36.5t-39 -105.5q4 -67 40 -104t95 -37q63 0 121 35v-122z" />
    <glyph glyph-name="d" unicode="d" horiz-adv-x="611" 
d="M183 252q0 -61 32 -98.5t78 -37.5q50 0 81 39t31 104q0 63 -33.5 98t-79.5 35t-77.5 -37t-31.5 -103zM551 0h-146v79q-51 -85 -152 -85q-99 0 -158.5 77t-59.5 184q0 120 62 189t157 69q99 0 151 -84v278h146v-707z" />
    <glyph glyph-name="e" unicode="e" horiz-adv-x="533" 
d="M458 29q-52 -34 -159 -34q-125 0 -194.5 72.5t-69.5 186.5q0 121 67.5 189.5t166.5 68.5q102 0 161 -59.5t59 -177.5q0 -23 -8 -79h-298q15 -42 52 -65t89 -23q77 0 134 43v-122zM275 401q-35 0 -62 -25.5t-36 -75.5h176v12q-7 89 -78 89z" />
    <glyph glyph-name="f" unicode="f" horiz-adv-x="346" 
d="M336 400h-95v-400h-145v400h-66v107h66v19q0 92 51.5 143t142.5 51q47 0 76 -10v-118q-28 11 -52 11q-37 0 -55 -17t-18 -60v-19h95v-107z" />
    <glyph glyph-name="g" unicode="g" horiz-adv-x="585" 
d="M530 49q0 -122 -73 -183.5t-183 -61.5q-107 0 -187 38v149q70 -56 172 -56q66 0 96 28t30 88v34q-44 -68 -140 -68q-84 0 -144.5 62t-60.5 184q0 108 58.5 178.5t153.5 70.5q90 0 133 -72v67h145v-458zM192 262q0 -63 24 -96t69 -33q47 0 73.5 35.5t26.5 85.5
q0 136 -99 136q-44 0 -69 -34t-25 -94z" />
    <glyph glyph-name="h" unicode="h" 
d="M525 0h-146v300q0 44 -22 69t-57 25q-15 0 -28.5 -4.5t-29.5 -16t-26 -39t-10 -66.5v-268h-146v707h146v-286q39 91 152 91q74 0 120.5 -47t46.5 -142v-323z" />
    <glyph glyph-name="i" unicode="i" horiz-adv-x="276" 
d="M211 0h-146v507h146v-507zM223 654q0 -35 -25 -60t-60 -25t-60 25t-25 60t25 60t60 25t60 -25t25 -60z" />
    <glyph glyph-name="j" unicode="j" horiz-adv-x="274" 
d="M214 -21q0 -80 -45 -128.5t-130 -48.5q-35 0 -79 16v111q33 -15 57 -15q52 0 52 67v526h145v-528zM226 654q0 -35 -25 -60t-60 -25t-60 25t-25 60t25 60t60 25t60 -25t25 -60z" />
    <glyph glyph-name="k" unicode="k" horiz-adv-x="548" 
d="M206 0h-146v690h146v-410l160 227h168l-176 -243l179 -264h-169l-162 249v-249z" />
    <glyph glyph-name="l" unicode="l" horiz-adv-x="276" 
d="M211 0h-146v707h146v-707z" />
    <glyph glyph-name="m" unicode="m" horiz-adv-x="859" 
d="M804 0h-146v301q0 43 -17 68t-49 25q-34 0 -60.5 -27.5t-26.5 -98.5v-268h-146v301q0 43 -17 68t-49 25q-34 0 -60.5 -27.5t-26.5 -98.5v-268h-146v507h146v-79q42 84 143 84q107 0 142 -96q17 45 57 70.5t94 25.5q75 0 118.5 -47.5t43.5 -139.5v-325z" />
    <glyph glyph-name="n" unicode="n" 
d="M525 0h-146v302q0 45 -21 68.5t-59 23.5q-40 0 -66.5 -31.5t-26.5 -94.5v-268h-146v507h146v-86q19 42 58.5 66.5t94.5 24.5q78 0 122 -46.5t44 -136.5v-329z" />
    <glyph glyph-name="o" unicode="o" horiz-adv-x="567" 
d="M532 256q0 -115 -65.5 -189.5t-182.5 -74.5q-119 0 -184 71.5t-65 183.5q0 117 68 192.5t181 75.5q118 0 183 -73t65 -186zM187 253q0 -65 24.5 -106.5t73.5 -41.5q48 0 71.5 40.5t23.5 105.5q0 149 -97 149q-48 0 -72 -41t-24 -106z" />
    <glyph glyph-name="p" unicode="p" horiz-adv-x="611" 
d="M206 -187h-146v694h146v-78q53 84 153 84q98 0 157.5 -69.5t59.5 -188.5q0 -113 -57.5 -187t-159.5 -74q-103 0 -153 81v-262zM206 259q0 -65 32 -104t82 -39q48 0 78 36.5t30 99.5q0 69 -30.5 104.5t-77.5 35.5q-46 0 -80 -35t-34 -98z" />
    <glyph glyph-name="q" unicode="q" horiz-adv-x="611" 
d="M183 252q0 -61 32 -98.5t78 -37.5q50 0 81 39t31 104q0 63 -33.5 98t-79.5 35t-77.5 -37t-31.5 -103zM551 -187h-146v266q-51 -85 -152 -85q-102 0 -160 74t-58 187q0 119 60 188.5t159 69.5t151 -84v78h146v-694z" />
    <glyph glyph-name="r" unicode="r" horiz-adv-x="370" 
d="M205 0h-146l1 507h145v-94q14 44 46.5 70.5t75.5 26.5q24 0 38 -4v-138q-24 11 -55 11q-47 0 -76 -34.5t-29 -91.5v-253z" />
    <glyph glyph-name="s" unicode="s" horiz-adv-x="436" 
d="M406 153q0 -75 -54 -116t-143 -41q-92 0 -154 31v130q69 -48 146 -48q55 0 55 35q0 9 -5 17t-17 15t-22 11.5t-29 12.5t-29 13q-101 48 -101 144q0 74 56.5 115t140.5 41q78 0 130 -21v-125q-53 31 -124 31q-26 0 -40 -10.5t-14 -26.5q0 -9 5 -17t16.5 -15t22 -12.5
t29 -13.5t29.5 -14q46 -24 74 -55.5t28 -80.5z" />
    <glyph glyph-name="t" unicode="t" horiz-adv-x="386" 
d="M356 11q-37 -16 -100 -16q-173 0 -173 173v232h-73v107h73v120h146v-120h118v-107h-118v-233q0 -27 15.5 -41t40.5 -14q40 0 71 20v-121z" />
    <glyph glyph-name="u" unicode="u" 
d="M520 0h-146v81q-40 -85 -154 -85q-78 0 -121.5 43.5t-43.5 128.5v339h146v-306q0 -89 78 -89q95 0 95 127v268h146v-507z" />
    <glyph glyph-name="v" unicode="v" horiz-adv-x="536" 
d="M342 0h-150l-187 507h153l66 -216q15 -50 26 -94.5t14 -64.5l4 -19q9 65 45 178l68 216h150z" />
    <glyph glyph-name="w" unicode="w" horiz-adv-x="806" 
d="M318 0h-150l-163 507h151l44 -167q16 -63 27 -113.5t13 -69.5l3 -19q7 60 49 202l49 167h126l48 -167q18 -64 30 -114.5t15 -69.5l3 -18q7 59 47 202l47 167h144l-162 -507h-150l-44 166q-14 54 -24.5 101t-13.5 67l-3 20q-10 -67 -42 -188z" />
    <glyph glyph-name="x" unicode="x" horiz-adv-x="526" 
d="M174 0h-158l181 254l-170 253h162l82 -151l91 151h160l-182 -254l169 -253h-159l-85 152z" />
    <glyph glyph-name="y" unicode="y" horiz-adv-x="532" 
d="M344 15q-79 -213 -241 -213q-31 0 -56 5v116q16 -4 34 -4q83 0 120 89l-196 499h159l55 -158q21 -61 34.5 -105t16.5 -58l3 -14q11 40 54 177l50 158h150z" />
    <glyph glyph-name="z" unicode="z" horiz-adv-x="479" 
d="M439 0h-399v105l222 290h-213v112h378v-101l-222 -293h234v-113z" />
    <glyph glyph-name="braceleft" unicode="{" horiz-adv-x="380" 
d="M355 -194q-35 -12 -66 -12q-70 0 -114.5 51t-44.5 129q0 22 6 60t6 54q0 38 -23 67.5t-62 29.5l-17 -1v141h17q39 0 62 29t23 67q0 16 -6 54t-6 60q0 78 44.5 129t114.5 51q31 0 66 -12v-135q-15 9 -31 9q-21 0 -36 -15.5t-15 -39.5q0 -12 6 -51.5t6 -63.5
q0 -61 -34.5 -103.5t-81.5 -48.5q47 -6 81.5 -49t34.5 -104q0 -24 -6 -63.5t-6 -51.5q0 -24 15 -39.5t36 -15.5q16 0 31 9v-135z" />
    <glyph glyph-name="bar" unicode="|" horiz-adv-x="280" 
d="M210 -194h-140v889h140v-889z" />
    <glyph glyph-name="braceright" unicode="}" horiz-adv-x="380" 
d="M250 -26q0 -78 -44.5 -129t-114.5 -51q-31 0 -66 12v135q15 -9 31 -9q21 0 36 15.5t15 39.5q0 12 -6 51.5t-6 63.5q0 61 34.5 104t81.5 49q-47 6 -81.5 48.5t-34.5 103.5q0 24 6 63.5t6 51.5q0 24 -15 39.5t-36 15.5q-16 0 -31 -9v135q35 12 66 12q70 0 114.5 -51
t44.5 -129q0 -22 -6 -60t-6 -54q0 -38 23 -67t62 -29h17v-141q-7 1 -17 1q-39 0 -62 -29.5t-23 -67.5q0 -16 6 -54t6 -60z" />
    <glyph glyph-name="asciitilde" unicode="~" horiz-adv-x="654" 
d="M232 238q-33 0 -55 -14t-48 -44l-101 80q31 44 76 76.5t96 32.5q66 0 131.5 -24.5t89.5 -24.5q33 0 55 14t48 45l101 -81q-77 -109 -173 -109q-57 0 -121.5 24.5t-98.5 24.5z" />
    <glyph glyph-name="exclamdown" unicode="&#xa1;" horiz-adv-x="289" 
d="M214 -165h-139v438h139v-438zM234 426q0 -38 -26.5 -64.5t-64.5 -26.5t-64.5 26.5t-26.5 64.5t26.5 64.5t64.5 26.5t64.5 -26.5t26.5 -64.5z" />
    <glyph glyph-name="cent" unicode="&#xa2;" horiz-adv-x="478" 
d="M438 24q-35 -18 -79 -26v-109h-121v108q-92 18 -150 87t-58 168q2 97 56.5 167t150.5 89v112h122v-110q43 -8 79 -27v-122q-53 33 -118 33q-62 0 -101.5 -37t-40.5 -105q4 -66 41.5 -103.5t97.5 -37.5q63 0 121 35v-122z" />
    <glyph glyph-name="sterling" unicode="&#xa3;" horiz-adv-x="540" 
d="M507 0h-462v121q73 38 73 130v16h-74v106h60q-3 24 -3 47q0 113 59 176.5t175 63.5q85 0 137 -32v-138q-46 33 -104 33q-105 0 -105 -109q0 -13 2 -41h166v-106h-155v-17q0 -88 -61 -127h292v-123z" />
    <glyph glyph-name="currency" unicode="&#xa4;" horiz-adv-x="571" 
d="M171 117l-58 -57l-85 82l59 57q-29 52 -29 112q0 59 28 110l-58 57l85 82l58 -57q51 28 115 28q62 0 114 -27l58 56l85 -82l-58 -57q29 -53 29 -110q0 -59 -30 -112l59 -57l-85 -82l-59 56q-50 -26 -113 -26q-64 0 -115 27zM180 311q0 -44 30 -75.5t76 -31.5t76 31.5
t30 75.5t-30 75.5t-76 31.5t-76 -31.5t-30 -75.5z" />
    <glyph glyph-name="yen" unicode="&#xa5;" horiz-adv-x="635" 
d="M568 117h-175v-117h-154v117h-173v90h173v45l-11 19h-162v90h111l-168 294h180l126 -246l132 246h179l-170 -294h112v-90h-164l-11 -19v-45h175v-90z" />
    <glyph glyph-name="brokenbar" unicode="&#xa6;" horiz-adv-x="280" 
d="M210 369h-140v338h140v-338zM210 -117h-140v338h140v-338z" />
    <glyph glyph-name="section" unicode="&#xa7;" horiz-adv-x="599" 
d="M324 192q33 -14 51 -24q8 16 8 32q0 14 -5.5 25.5t-13 20t-24 18.5t-29.5 16.5l-39 19.5l-44 22l-12 6q-11 -19 -11 -37q0 -28 26 -49t93 -50zM531 197q0 -65 -42 -115q31 -41 31 -90q0 -83 -64.5 -131t-175.5 -48q-119 0 -194 42v155q91 -66 194 -66q82 0 82 48
q0 26 -30 45.5t-154 73.5q-121 54 -121 183q0 62 46 117q-30 38 -30 88q0 82 61.5 131.5t170.5 49.5q98 0 174 -35v-144q-83 48 -168 48q-77 0 -77 -49q0 -8 2.5 -15t10 -13.5t15 -12t23 -14t29 -15.5t37.5 -19t44 -23q69 -36 102.5 -78t33.5 -113z" />
    <glyph glyph-name="dieresis" unicode="&#xa8;" horiz-adv-x="500" 
d="M467 710q0 -35 -24 -58.5t-59 -23.5q-36 0 -59.5 23.5t-23.5 58.5q0 34 23.5 57.5t59.5 23.5q35 0 59 -23.5t24 -57.5zM198 710q0 -35 -23.5 -58.5t-58.5 -23.5q-36 0 -59.5 23.5t-23.5 58.5q0 34 23.5 57.5t59.5 23.5q35 0 58.5 -23.5t23.5 -57.5z" />
    <glyph glyph-name="copyright" unicode="&#xa9;" horiz-adv-x="761" 
d="M487 192q-39 -21 -96 -21q-69 0 -119.5 46t-50.5 120q1 75 48.5 122t127.5 47q49 0 90 -22v-94q-35 22 -80 22q-28 0 -50 -19t-23 -56q2 -35 22.5 -54.5t48.5 -19.5q43 0 82 24v-95zM726 338q0 -143 -101 -244.5t-244 -101.5t-244.5 101.5t-101.5 244.5t101.5 244
t244.5 101t244 -101.5t101 -243.5zM132 337q0 -109 70.5 -179t178.5 -70q107 0 177.5 70t70.5 179q0 107 -70.5 177.5t-177.5 70.5q-108 0 -178.5 -70.5t-70.5 -177.5z" />
    <glyph glyph-name="ordfeminine" unicode="&#xaa;" horiz-adv-x="400" 
d="M189 476q25 0 40 16.5t15 43.5v32h-41q-31 0 -48 -13.5t-17 -35.5q0 -43 51 -43zM250 444q-26 -55 -108 -55q-62 0 -97 35t-35 90q0 61 45 96t134 35h55v28q0 54 -73 54q-69 0 -129 -38v111q52 28 147 28q92 0 136.5 -39t44.5 -121v-276h-120v52z" />
    <glyph glyph-name="guillemotleft" unicode="&#xab;" horiz-adv-x="592" 
d="M404 253l146 -162h-152l-152 162l152 162h152zM330 91h-152l-152 162l152 162h152l-146 -162z" />
    <glyph glyph-name="logicalnot" unicode="&#xac;" horiz-adv-x="603" 
d="M558 136h-120v165h-393v116h513v-281z" />
    <glyph glyph-name="uni00AD" unicode="&#xad;" horiz-adv-x="357" 
d="M312 202h-267v120h267v-120z" />
    <glyph glyph-name="registered" unicode="&#xae;" horiz-adv-x="492" 
d="M228 440h-54v237h70q91 0 91 -75q0 -48 -38 -66l60 -96h-66l-50 86h-13v-86zM246 632h-18v-61h22q13 0 20.5 9t7.5 22q0 30 -32 30zM482 551q0 -102 -67 -168t-169 -66q-103 0 -169.5 65.5t-66.5 168.5t66.5 169t169.5 66q102 0 169 -66.5t67 -168.5zM72 551
q0 -79 47.5 -127t127.5 -48q79 0 126.5 48t47.5 127t-47.5 128t-126.5 49q-80 0 -127.5 -49t-47.5 -128z" />
    <glyph glyph-name="macron" unicode="&#xaf;" horiz-adv-x="500" 
d="M428 651h-356v99h356v-99z" />
    <glyph glyph-name="degree" unicode="&#xb0;" horiz-adv-x="440" 
d="M410 495q0 -79 -55.5 -134.5t-134.5 -55.5t-134.5 55.5t-55.5 134.5t55.5 134.5t134.5 55.5t134.5 -55.5t55.5 -134.5zM132 495q0 -36 26 -62t62 -26t62 26t26 62t-26 62t-62 26t-62 -26t-26 -62z" />
    <glyph glyph-name="plusminus" unicode="&#xb1;" horiz-adv-x="589" 
d="M544 326h-183v-140h-134v140h-182v120h182v139h134v-139h183v-120zM544 28h-499v120h499v-120z" />
    <glyph glyph-name="twosuperior" unicode="&#xb2;" horiz-adv-x="365" 
d="M330 392h-295v77q72 52 121 108t49 100q0 51 -61 51q-47 0 -99 -37v105q52 33 117 33q69 0 111.5 -36.5t42.5 -100.5q0 -115 -148 -210h162v-90z" />
    <glyph glyph-name="threesuperior" unicode="&#xb3;" horiz-adv-x="353" 
d="M318 510q0 -55 -41.5 -88.5t-111.5 -33.5q-80 0 -130 27v94q57 -30 113 -30q28 0 44.5 13t16.5 32q0 41 -85 41h-15v89h14q77 0 77 41t-52 41q-51 0 -97 -35v101q47 27 107 27q71 0 112 -33.5t41 -87.5q0 -39 -21.5 -64.5t-59.5 -33.5q38 -4 63 -30t25 -70z" />
    <glyph glyph-name="acute" unicode="&#xb4;" horiz-adv-x="500" 
d="M255 621h-121l86 177h146z" />
    <glyph glyph-name="uni00B5" unicode="&#xb5;" horiz-adv-x="585" 
d="M206 -180h-146v687h146v-306q0 -43 25 -66t63 -23q44 0 64.5 28.5t20.5 98.5v268h146v-507h-146v60q-34 -64 -104 -64q-36 0 -69 14v-190z" />
    <glyph glyph-name="paragraph" unicode="&#xb6;" horiz-adv-x="592" 
d="M324 -148h-111v465q-97 0 -150 52.5t-53 127.5q0 74 54.5 125.5t167.5 51.5h92v-822zM527 -148h-111l1 822h110v-822z" />
    <glyph glyph-name="periodcentered" unicode="&#xb7;" horiz-adv-x="268" 
d="M223 252q0 -37 -26 -63t-63 -26t-63 26t-26 63t26 63t63 26t63 -26t26 -63z" />
    <glyph glyph-name="cedilla" unicode="&#xb8;" horiz-adv-x="500" 
d="M339 -125q0 -63 -45.5 -103t-133.5 -40v91q36 0 55.5 17t19.5 47q0 28 -26 62h113q17 -27 17 -74z" />
    <glyph glyph-name="onesuperior" unicode="&#xb9;" horiz-adv-x="279" 
d="M229 392h-103v321l-116 -62v98l134 76h85v-433z" />
    <glyph glyph-name="ordmasculine" unicode="&#xba;" horiz-adv-x="442" 
d="M432 610q0 -98 -55.5 -161t-154.5 -63q-102 0 -157 61t-55 155q0 100 57.5 164t154.5 64q101 0 155.5 -62t54.5 -158zM139 607q0 -55 21 -90t63 -35q41 0 60.5 34t19.5 89q0 128 -83 128q-41 0 -61 -35t-20 -91z" />
    <glyph glyph-name="guillemotright" unicode="&#xbb;" horiz-adv-x="591" 
d="M565 253l-152 -162h-152l146 162l-146 162h152zM193 91h-152l146 162l-146 162h152l152 -162z" />
    <glyph glyph-name="onequarter" unicode="&#xbc;" horiz-adv-x="829" 
d="M232 0h-109l429 711h108zM229 278h-103v321l-116 -62v98l134 76h85v-433zM578 171h89v182zM769 0h-102v86h-194v85l133 259h163v-259h52v-85h-52v-86z" />
    <glyph glyph-name="onehalf" unicode="&#xbd;" horiz-adv-x="833" 
d="M232 0h-109l429 711h108zM229 278h-103v321l-116 -62v98l134 76h85v-433zM817 0h-295v77q72 52 121 108t49 100q0 51 -61 51q-47 0 -99 -37v105q52 33 117 33q69 0 111.5 -36.5t42.5 -100.5q0 -115 -148 -210h162v-90z" />
    <glyph glyph-name="threequarters" unicode="&#xbe;" horiz-adv-x="898" 
d="M285 0h-109l429 711h108zM306 395q0 -55 -41.5 -88.5t-111.5 -33.5q-80 0 -130 27v94q57 -30 113 -30q28 0 44.5 13t16.5 32q0 41 -85 41h-15v89h14q77 0 77 41t-52 41q-51 0 -97 -35v101q46 27 107 27q71 0 112 -33.5t41 -87.5q0 -39 -21.5 -64.5t-59.5 -33.5
q38 -4 63 -30t25 -70zM631 171h89v182zM822 0h-102v86h-194v85l133 259h163v-259h52v-85h-52v-86z" />
    <glyph glyph-name="questiondown" unicode="&#xbf;" horiz-adv-x="458" 
d="M428 -144q-60 -28 -153 -28q-94 0 -152 49.5t-58 133.5q0 45 18 81.5t45 57t53 31.5t47 11l3 82h133l3 -151q-154 0 -154 -94q0 -36 21.5 -57.5t63.5 -21.5q65 0 130 43v-137zM390 427q0 -38 -26.5 -64.5t-64.5 -26.5t-64.5 26.5t-26.5 64.5t26.5 64.5t64.5 26.5
t64.5 -26.5t26.5 -64.5z" />
    <glyph glyph-name="Agrave" unicode="&#xc0;" horiz-adv-x="690" 
d="M269 286l-7 -24h162l-7 24q-29 98 -47.5 167t-22.5 89l-4 20q-8 -55 -74 -276zM184 0h-161l225 674h194l225 -674h-165l-41 138h-236zM406 721h-121l-111 177h146z" />
    <glyph glyph-name="Aacute" unicode="&#xc1;" horiz-adv-x="690" 
d="M269 286l-7 -24h162l-7 24q-29 98 -47.5 167t-22.5 89l-4 20q-8 -55 -74 -276zM184 0h-161l225 674h194l225 -674h-165l-41 138h-236zM416 721h-121l86 177h146z" />
    <glyph glyph-name="Acircumflex" unicode="&#xc2;" horiz-adv-x="690" 
d="M269 286l-7 -24h162l-7 24q-29 98 -47.5 167t-22.5 89l-4 20q-8 -55 -74 -276zM184 0h-161l225 674h194l225 -674h-165l-41 138h-236zM267 721h-139l156 177h124l156 -177h-139l-79 96z" />
    <glyph glyph-name="Atilde" unicode="&#xc3;" horiz-adv-x="690" 
d="M269 286l-7 -24h162l-7 24q-29 98 -47.5 167t-22.5 89l-4 20q-8 -55 -74 -276zM184 0h-161l225 674h194l225 -674h-165l-41 138h-236zM289 776q-25 0 -39 -8.5t-36 -34.5l-65 64q16 34 47.5 58t68.5 24q36 0 76.5 -17.5t59.5 -17.5q49 0 70 43l74 -61q-43 -85 -136 -85
q-33 0 -69 17.5t-51 17.5z" />
    <glyph glyph-name="Adieresis" unicode="&#xc4;" horiz-adv-x="690" 
d="M269 286l-7 -24h162l-7 24q-29 98 -47.5 167t-22.5 89l-4 20q-8 -55 -74 -276zM184 0h-161l225 674h194l225 -674h-165l-41 138h-236zM569 810q0 -35 -24 -58.5t-59 -23.5q-36 0 -59.5 23.5t-23.5 58.5q0 34 23.5 57.5t59.5 23.5q35 0 59 -23.5t24 -57.5zM300 810
q0 -35 -23.5 -58.5t-58.5 -23.5q-36 0 -59.5 23.5t-23.5 58.5q0 34 23.5 57.5t59.5 23.5q35 0 58.5 -23.5t23.5 -57.5z" />
    <glyph glyph-name="Aring" unicode="&#xc5;" horiz-adv-x="690" 
d="M269 286l-7 -24h162l-7 24q-29 98 -47.5 167t-22.5 89l-4 20q-8 -55 -74 -276zM184 0h-161l225 674h194l225 -674h-165l-41 138h-236zM485 846q0 -56 -40 -96t-96 -40t-96 40t-40 96t40 96t96 40t96 -40t40 -96zM296 849q0 -23 15 -39.5t38 -16.5t38 16.5t15 39.5
t-15 39.5t-38 16.5t-38 -16.5t-15 -39.5z" />
    <glyph glyph-name="AE" unicode="&#xc6;" horiz-adv-x="940" 
d="M169 0h-161l325 674h543v-123h-260v-153h232v-122h-232v-153h264v-123h-413v138h-229zM313 286l-12 -24h166v352q-41 -106 -154 -328z" />
    <glyph glyph-name="Ccedilla" unicode="&#xc7;" horiz-adv-x="613" 
d="M563 30q-61 -38 -176 -38q-148 0 -247.5 95.5t-99.5 247.5q0 154 96.5 251t251.5 97q114 0 175 -38v-148q-75 46 -167 46q-81 0 -136 -56.5t-55 -151.5q0 -93 55 -147.5t142 -54.5q94 0 161 48v-151zM448 -125q0 -63 -45.5 -103t-133.5 -40v91q36 0 55.5 17t19.5 47
q0 28 -26 62h113q17 -27 17 -74z" />
    <glyph glyph-name="Egrave" unicode="&#xc8;" horiz-adv-x="544" 
d="M484 0h-419v674h415v-123h-260v-153h232v-122h-232v-153h264v-123zM346 721h-121l-111 177h146z" />
    <glyph glyph-name="Eacute" unicode="&#xc9;" horiz-adv-x="544" 
d="M484 0h-419v674h415v-123h-260v-153h232v-122h-232v-153h264v-123zM343 721h-121l86 177h146z" />
    <glyph glyph-name="Ecircumflex" unicode="&#xca;" horiz-adv-x="544" 
d="M484 0h-419v674h415v-123h-260v-153h232v-122h-232v-153h264v-123zM193 721h-139l156 177h124l156 -177h-139l-79 96z" />
    <glyph glyph-name="Edieresis" unicode="&#xcb;" horiz-adv-x="544" 
d="M484 0h-419v674h415v-123h-260v-153h232v-122h-232v-153h264v-123zM489 809q0 -35 -24 -58.5t-59 -23.5q-36 0 -59.5 23.5t-23.5 58.5q0 34 23.5 57.5t59.5 23.5q35 0 59 -23.5t24 -57.5zM220 809q0 -35 -23.5 -58.5t-58.5 -23.5q-36 0 -59.5 23.5t-23.5 58.5
q0 34 23.5 57.5t59.5 23.5q35 0 58.5 -23.5t23.5 -57.5z" />
    <glyph glyph-name="Igrave" unicode="&#xcc;" horiz-adv-x="304" 
d="M229 0h-154v674h154v-674zM208 721h-121l-111 177h146z" />
    <glyph glyph-name="Iacute" unicode="&#xcd;" horiz-adv-x="304" 
d="M229 0h-154v674h154v-674zM215 721h-121l86 177h146z" />
    <glyph glyph-name="Icircumflex" unicode="&#xce;" horiz-adv-x="304" 
d="M229 0h-154v674h154v-674zM75 721h-139l156 177h124l156 -177h-139l-79 96z" />
    <glyph glyph-name="Idieresis" unicode="&#xcf;" horiz-adv-x="304" 
d="M229 0h-154v674h154v-674zM375 810q0 -35 -24 -58.5t-59 -23.5q-36 0 -59.5 23.5t-23.5 58.5q0 34 23.5 57.5t59.5 23.5q35 0 59 -23.5t24 -57.5zM106 810q0 -35 -23.5 -58.5t-58.5 -23.5q-36 0 -59.5 23.5t-23.5 58.5q0 34 23.5 57.5t59.5 23.5q35 0 58.5 -23.5
t23.5 -57.5z" />
    <glyph glyph-name="Eth" unicode="&#xd0;" horiz-adv-x="749" 
d="M361 0h-230v269h-66v124h66v281h232q152 0 249 -93.5t97 -232.5q0 -162 -95.5 -255t-252.5 -93zM427 269h-138v-143h70q93 0 143.5 58t50.5 164q0 90 -51 144.5t-144 54.5h-69v-154h138v-124z" />
    <glyph glyph-name="Ntilde" unicode="&#xd1;" horiz-adv-x="697" 
d="M219 0h-154v674h169l157 -279q33 -59 57.5 -110.5t31.5 -72.5l8 -22q-10 74 -10 205v279h154v-674h-169l-161 279q-32 54 -56.5 106.5t-33.5 77.5l-8 25q15 -90 15 -209v-279zM296 776q-25 0 -39 -8.5t-36 -34.5l-65 64q16 34 47.5 58t68.5 24q36 0 76.5 -17.5
t59.5 -17.5q48 0 70 43l74 -61q-42 -85 -136 -85q-33 0 -69 17.5t-51 17.5z" />
    <glyph glyph-name="Ograve" unicode="&#xd2;" horiz-adv-x="736" 
d="M696 339q0 -155 -89.5 -250.5t-238.5 -95.5q-150 0 -239 95t-89 251q0 155 89.5 250.5t238.5 95.5q150 0 239 -95t89 -251zM205 339q0 -95 44 -150.5t119 -55.5t119 55.5t44 150.5t-44 150.5t-119 55.5t-119 -55.5t-44 -150.5zM438 721h-121l-111 177h146z" />
    <glyph glyph-name="Oacute" unicode="&#xd3;" horiz-adv-x="736" 
d="M696 339q0 -155 -89.5 -250.5t-238.5 -95.5q-150 0 -239 95t-89 251q0 155 89.5 250.5t238.5 95.5q150 0 239 -95t89 -251zM205 339q0 -95 44 -150.5t119 -55.5t119 55.5t44 150.5t-44 150.5t-119 55.5t-119 -55.5t-44 -150.5zM432 721h-121l86 177h146z" />
    <glyph glyph-name="Ocircumflex" unicode="&#xd4;" horiz-adv-x="736" 
d="M696 339q0 -155 -89.5 -250.5t-238.5 -95.5q-150 0 -239 95t-89 251q0 155 89.5 250.5t238.5 95.5q150 0 239 -95t89 -251zM205 339q0 -95 44 -150.5t119 -55.5t119 55.5t44 150.5t-44 150.5t-119 55.5t-119 -55.5t-44 -150.5zM293 721h-139l156 177h124l156 -177h-139
l-79 96z" />
    <glyph glyph-name="Otilde" unicode="&#xd5;" horiz-adv-x="736" 
d="M696 339q0 -155 -89.5 -250.5t-238.5 -95.5q-150 0 -239 95t-89 251q0 155 89.5 250.5t238.5 95.5q150 0 239 -95t89 -251zM205 339q0 -95 44 -150.5t119 -55.5t119 55.5t44 150.5t-44 150.5t-119 55.5t-119 -55.5t-44 -150.5zM310 775q-25 0 -39 -8.5t-36 -34.5l-65 64
q16 34 47.5 58t68.5 24q36 0 76.5 -17.5t59.5 -17.5q48 0 70 43l74 -61q-42 -85 -136 -85q-33 0 -69 17.5t-51 17.5z" />
    <glyph glyph-name="Odieresis" unicode="&#xd6;" horiz-adv-x="736" 
d="M696 339q0 -155 -89.5 -250.5t-238.5 -95.5q-150 0 -239 95t-89 251q0 155 89.5 250.5t238.5 95.5q150 0 239 -95t89 -251zM205 339q0 -95 44 -150.5t119 -55.5t119 55.5t44 150.5t-44 150.5t-119 55.5t-119 -55.5t-44 -150.5zM594 810q0 -35 -24 -58.5t-59 -23.5
q-36 0 -59.5 23.5t-23.5 58.5q0 34 23.5 57.5t59.5 23.5q35 0 59 -23.5t24 -57.5zM325 810q0 -35 -23.5 -58.5t-58.5 -23.5q-36 0 -59.5 23.5t-23.5 58.5q0 34 23.5 57.5t59.5 23.5q35 0 58.5 -23.5t23.5 -57.5z" />
    <glyph glyph-name="multiply" unicode="&#xd7;" horiz-adv-x="530" 
d="M487 209l-92 -92l-130 129l-127 -127l-95 94l128 128l-129 128l92 92l129 -128l127 127l95 -94l-128 -128z" />
    <glyph glyph-name="Oslash" unicode="&#xd8;" horiz-adv-x="714" 
d="M694 339q0 -155 -89.5 -250.5t-238.5 -95.5q-86 0 -156 34l-25 -34h-146l78 106q-79 93 -79 240q0 155 89.5 250.5t238.5 95.5q89 0 159 -35l25 34h145l-79 -107q78 -92 78 -238zM196 339q0 -64 18 -109l227 307q-35 16 -75 16q-78 0 -124 -58t-46 -156zM366 125
q78 0 124 58t46 156q0 61 -17 106l-225 -305q32 -15 72 -15z" />
    <glyph glyph-name="Ugrave" unicode="&#xd9;" horiz-adv-x="668" 
d="M608 261q0 -132 -74 -201.5t-200 -69.5q-124 0 -199 69t-75 195v420h154v-419q0 -125 120 -125t120 130v414h154v-413zM402 721h-121l-111 177h146z" />
    <glyph glyph-name="Uacute" unicode="&#xda;" horiz-adv-x="668" 
d="M608 261q0 -132 -74 -201.5t-200 -69.5q-124 0 -199 69t-75 195v420h154v-419q0 -125 120 -125t120 130v414h154v-413zM408 721h-121l86 177h146z" />
    <glyph glyph-name="Ucircumflex" unicode="&#xdb;" horiz-adv-x="668" 
d="M608 261q0 -132 -74 -201.5t-200 -69.5q-124 0 -199 69t-75 195v420h154v-419q0 -125 120 -125t120 130v414h154v-413zM253 721h-139l156 177h124l156 -177h-139l-79 96z" />
    <glyph glyph-name="Udieresis" unicode="&#xdc;" horiz-adv-x="668" 
d="M608 261q0 -132 -74 -201.5t-200 -69.5q-124 0 -199 69t-75 195v420h154v-419q0 -125 120 -125t120 130v414h154v-413zM556 809q0 -35 -24 -58.5t-59 -23.5q-36 0 -59.5 23.5t-23.5 58.5q0 34 23.5 57.5t59.5 23.5q35 0 59 -23.5t24 -57.5zM287 809q0 -35 -23.5 -58.5
t-58.5 -23.5q-36 0 -59.5 23.5t-23.5 58.5q0 34 23.5 57.5t59.5 23.5q35 0 58.5 -23.5t23.5 -57.5z" />
    <glyph glyph-name="Yacute" unicode="&#xdd;" horiz-adv-x="643" 
d="M397 0h-154v247l-230 427h180l41 -98q32 -76 53 -130t27 -70l5 -16q10 45 88 216l44 98h179l-233 -426v-248zM396 721h-121l86 177h146z" />
    <glyph glyph-name="Thorn" unicode="&#xde;" horiz-adv-x="563" 
d="M297 110h-78v-110h-154v674h154v-110h78q113 0 182 -62.5t69 -159.5q0 -111 -72.5 -171.5t-178.5 -60.5zM285 441h-66v-209h66q53 0 80 29t27 75q0 43 -25 74t-82 31z" />
    <glyph glyph-name="germandbls" unicode="&#xdf;" horiz-adv-x="598" 
d="M578 159q0 -76 -49.5 -122t-131.5 -46q-81 0 -117 24v123q51 -33 101 -33q27 0 44 14t17 38q0 20 -15 38t-36 33t-42.5 31t-36.5 39.5t-15 52.5q0 38 28.5 84.5t28.5 70.5q0 57 -62 57q-90 0 -90 -93v-470h-142v461q0 109 58 169t165 60q98 0 158.5 -50.5t60.5 -120.5
q0 -38 -14 -68t-27.5 -50t-13.5 -35q0 -11 20.5 -28t45 -35t45 -56.5t20.5 -87.5z" />
    <glyph glyph-name="agrave" unicode="&#xe0;" horiz-adv-x="516" 
d="M246 100q31 0 48 19t17 52v37h-47q-37 0 -57 -16t-20 -41q0 -51 59 -51zM318 62q-32 -65 -126 -65q-74 0 -115.5 42t-41.5 105q0 73 53.5 113.5t158.5 40.5h64v35q0 64 -85 64q-82 0 -152 -46v131q60 34 173 34q108 0 161 -46.5t53 -144.5v-325h-143v62zM326 554h-121
l-111 177h146z" />
    <glyph glyph-name="aacute" unicode="&#xe1;" horiz-adv-x="516" 
d="M246 100q31 0 48 19t17 52v37h-47q-37 0 -57 -16t-20 -41q0 -51 59 -51zM318 62q-32 -65 -126 -65q-74 0 -115.5 42t-41.5 105q0 73 53.5 113.5t158.5 40.5h64v35q0 64 -85 64q-82 0 -152 -46v131q60 34 173 34q108 0 161 -46.5t53 -144.5v-325h-143v62zM315 554h-121
l86 177h146z" />
    <glyph glyph-name="acircumflex" unicode="&#xe2;" horiz-adv-x="516" 
d="M246 100q31 0 48 19t17 52v37h-47q-37 0 -57 -16t-20 -41q0 -51 59 -51zM318 62q-32 -65 -126 -65q-74 0 -115.5 42t-41.5 105q0 73 53.5 113.5t158.5 40.5h64v35q0 64 -85 64q-82 0 -152 -46v131q60 34 173 34q108 0 161 -46.5t53 -144.5v-325h-143v62zM177 554h-139
l156 177h124l156 -177h-139l-79 96z" />
    <glyph glyph-name="atilde" unicode="&#xe3;" horiz-adv-x="516" 
d="M246 100q31 0 48 19t17 52v37h-47q-37 0 -57 -16t-20 -41q0 -51 59 -51zM318 62q-32 -65 -126 -65q-74 0 -115.5 42t-41.5 105q0 73 53.5 113.5t158.5 40.5h64v35q0 64 -85 64q-82 0 -152 -46v131q60 34 173 34q108 0 161 -46.5t53 -144.5v-325h-143v62zM198 609
q-25 0 -39 -8.5t-36 -34.5l-65 64q16 34 47.5 58t68.5 24q36 0 76.5 -17.5t59.5 -17.5q48 0 70 43l74 -61q-42 -85 -136 -85q-33 0 -69 17.5t-51 17.5z" />
    <glyph glyph-name="adieresis" unicode="&#xe4;" horiz-adv-x="516" 
d="M246 100q31 0 48 19t17 52v37h-47q-37 0 -57 -16t-20 -41q0 -51 59 -51zM318 62q-32 -65 -126 -65q-74 0 -115.5 42t-41.5 105q0 73 53.5 113.5t158.5 40.5h64v35q0 64 -85 64q-82 0 -152 -46v131q60 34 173 34q108 0 161 -46.5t53 -144.5v-325h-143v62zM482 643
q0 -35 -24 -58.5t-59 -23.5q-36 0 -59.5 23.5t-23.5 58.5q0 34 23.5 57.5t59.5 23.5q35 0 59 -23.5t24 -57.5zM213 643q0 -35 -23.5 -58.5t-58.5 -23.5q-36 0 -59.5 23.5t-23.5 58.5q0 34 23.5 57.5t59.5 23.5q35 0 58.5 -23.5t23.5 -57.5z" />
    <glyph glyph-name="aring" unicode="&#xe5;" horiz-adv-x="516" 
d="M246 100q31 0 48 19t17 52v37h-47q-37 0 -57 -16t-20 -41q0 -51 59 -51zM318 62q-32 -65 -126 -65q-74 0 -115.5 42t-41.5 105q0 73 53.5 113.5t158.5 40.5h64v35q0 64 -85 64q-82 0 -152 -46v131q60 34 173 34q108 0 161 -46.5t53 -144.5v-325h-143v62zM396 679
q0 -56 -40 -96t-96 -40t-96 40t-40 96t40 96t96 40t96 -40t40 -96zM207 682q0 -23 15 -39.5t38 -16.5t38 16.5t15 39.5t-15 39.5t-38 16.5t-38 -16.5t-15 -39.5z" />
    <glyph glyph-name="ae" unicode="&#xe6;" horiz-adv-x="808" 
d="M392 88q-16 -38 -59 -65t-115 -27q-85 0 -131.5 40t-46.5 108q0 73 53.5 113.5t158.5 40.5h64v35q0 64 -85 64q-82 0 -152 -46v131q60 34 163 34q54 0 93.5 -20t55.5 -54q23 33 65 51.5t92 18.5q102 0 161 -59.5t59 -177.5q0 -23 -8 -79h-299q16 -42 53 -65t89 -23
q77 0 134 43v-122q-53 -34 -152 -34q-57 0 -111 23t-82 70zM192 151q0 -51 59 -51q31 0 48 19t17 52v37h-47q-37 0 -57 -16t-20 -41zM554 401q-34 0 -61.5 -26t-36.5 -75h176v11q-7 90 -78 90z" />
    <glyph glyph-name="ccedilla" unicode="&#xe7;" horiz-adv-x="469" 
d="M439 24q-59 -32 -142 -32q-114 0 -188 72.5t-74 187.5q2 114 74 188.5t197 74.5q77 0 133 -29v-125q-53 33 -118 33q-61 0 -99 -36.5t-39 -105.5q4 -67 40 -104t95 -37q63 0 121 35v-122zM369 -125q0 -63 -45.5 -103t-133.5 -40v91q36 0 55.5 17t19.5 47q0 28 -26 62h113
q17 -27 17 -74z" />
    <glyph glyph-name="egrave" unicode="&#xe8;" horiz-adv-x="533" 
d="M458 29q-52 -34 -159 -34q-125 0 -194.5 72.5t-69.5 186.5q0 121 67.5 189.5t166.5 68.5q102 0 161 -59.5t59 -177.5q0 -23 -8 -79h-298q15 -42 52 -65t89 -23q77 0 134 43v-122zM275 401q-35 0 -62 -25.5t-36 -75.5h176v12q-7 89 -78 89zM336 554h-121l-111 177h146z
" />
    <glyph glyph-name="eacute" unicode="&#xe9;" horiz-adv-x="533" 
d="M458 29q-52 -34 -159 -34q-125 0 -194.5 72.5t-69.5 186.5q0 121 67.5 189.5t166.5 68.5q102 0 161 -59.5t59 -177.5q0 -23 -8 -79h-298q15 -42 52 -65t89 -23q77 0 134 43v-122zM275 401q-35 0 -62 -25.5t-36 -75.5h176v12q-7 89 -78 89zM346 553h-121l86 177h146z" />
    <glyph glyph-name="ecircumflex" unicode="&#xea;" horiz-adv-x="533" 
d="M458 29q-52 -34 -159 -34q-125 0 -194.5 72.5t-69.5 186.5q0 121 67.5 189.5t166.5 68.5q102 0 161 -59.5t59 -177.5q0 -23 -8 -79h-298q15 -42 52 -65t89 -23q77 0 134 43v-122zM275 401q-35 0 -62 -25.5t-36 -75.5h176v12q-7 89 -78 89zM190 554h-139l156 177h124
l156 -177h-139l-79 96z" />
    <glyph glyph-name="edieresis" unicode="&#xeb;" horiz-adv-x="533" 
d="M458 29q-52 -34 -159 -34q-125 0 -194.5 72.5t-69.5 186.5q0 121 67.5 189.5t166.5 68.5q102 0 161 -59.5t59 -177.5q0 -23 -8 -79h-298q15 -42 52 -65t89 -23q77 0 134 43v-122zM275 401q-35 0 -62 -25.5t-36 -75.5h176v12q-7 89 -78 89zM501 643q0 -35 -24 -58.5
t-59 -23.5q-36 0 -59.5 23.5t-23.5 58.5q0 34 23.5 57.5t59.5 23.5q35 0 59 -23.5t24 -57.5zM232 643q0 -35 -23.5 -58.5t-58.5 -23.5q-36 0 -59.5 23.5t-23.5 58.5q0 34 23.5 57.5t59.5 23.5q35 0 58.5 -23.5t23.5 -57.5z" />
    <glyph glyph-name="igrave" unicode="&#xec;" horiz-adv-x="276" 
d="M211 0h-146v507h146v-507zM189 554h-121l-111 177h146z" />
    <glyph glyph-name="iacute" unicode="&#xed;" horiz-adv-x="276" 
d="M211 0h-146v507h146v-507zM206 554h-121l86 177h146z" />
    <glyph glyph-name="icircumflex" unicode="&#xee;" horiz-adv-x="276" 
d="M211 0h-146v507h146v-507zM60 554h-139l156 177h124l156 -177h-139l-79 96z" />
    <glyph glyph-name="idieresis" unicode="&#xef;" horiz-adv-x="276" 
d="M211 0h-146v507h146v-507zM356 643q0 -35 -24 -58.5t-59 -23.5q-36 0 -59.5 23.5t-23.5 58.5q0 34 23.5 57.5t59.5 23.5q35 0 59 -23.5t24 -57.5zM87 643q0 -35 -23.5 -58.5t-58.5 -23.5q-36 0 -59.5 23.5t-23.5 58.5q0 34 23.5 57.5t59.5 23.5q35 0 58.5 -23.5
t23.5 -57.5z" />
    <glyph glyph-name="eth" unicode="&#xf0;" horiz-adv-x="557" 
d="M510 289q0 -135 -62 -217t-180 -82q-109 0 -171 62t-62 152q0 89 53.5 143.5t137.5 54.5q82 0 136 -51q-13 86 -62 161l-143 -70v81l97 47q-50 54 -126 104h184q28 -20 57 -47l113 55v-81l-65 -32q45 -63 69 -137.5t24 -142.5zM267 120q38 0 63 25t33 90q-42 44 -97 44
q-39 0 -60.5 -22.5t-21.5 -62.5q0 -33 22.5 -53.5t60.5 -20.5z" />
    <glyph glyph-name="ntilde" unicode="&#xf1;" 
d="M525 0h-146v302q0 45 -21 68.5t-59 23.5q-40 0 -66.5 -31.5t-26.5 -94.5v-268h-146v507h146v-86q19 42 58.5 66.5t94.5 24.5q78 0 122 -46.5t44 -136.5v-329zM234 609q-25 0 -39 -8.5t-36 -34.5l-65 64q16 34 47.5 58t68.5 24q36 0 76.5 -17.5t59.5 -17.5q48 0 70 43
l74 -61q-42 -85 -136 -85q-33 0 -69 17.5t-51 17.5z" />
    <glyph glyph-name="ograve" unicode="&#xf2;" horiz-adv-x="567" 
d="M532 256q0 -115 -65.5 -189.5t-182.5 -74.5q-119 0 -184 71.5t-65 183.5q0 117 68 192.5t181 75.5q118 0 183 -73t65 -186zM187 253q0 -65 24.5 -106.5t73.5 -41.5q48 0 71.5 40.5t23.5 105.5q0 149 -97 149q-48 0 -72 -41t-24 -106zM354 553h-121l-111 177h146z" />
    <glyph glyph-name="oacute" unicode="&#xf3;" horiz-adv-x="567" 
d="M532 256q0 -115 -65.5 -189.5t-182.5 -74.5q-119 0 -184 71.5t-65 183.5q0 117 68 192.5t181 75.5q118 0 183 -73t65 -186zM187 253q0 -65 24.5 -106.5t73.5 -41.5q48 0 71.5 40.5t23.5 105.5q0 149 -97 149q-48 0 -72 -41t-24 -106zM356 553h-121l86 177h146z" />
    <glyph glyph-name="ocircumflex" unicode="&#xf4;" horiz-adv-x="567" 
d="M532 256q0 -115 -65.5 -189.5t-182.5 -74.5q-119 0 -184 71.5t-65 183.5q0 117 68 192.5t181 75.5q118 0 183 -73t65 -186zM187 253q0 -65 24.5 -106.5t73.5 -41.5q48 0 71.5 40.5t23.5 105.5q0 149 -97 149q-48 0 -72 -41t-24 -106zM208 553h-139l156 177h124l156 -177
h-139l-79 96z" />
    <glyph glyph-name="otilde" unicode="&#xf5;" horiz-adv-x="567" 
d="M532 256q0 -115 -65.5 -189.5t-182.5 -74.5q-119 0 -184 71.5t-65 183.5q0 117 68 192.5t181 75.5q118 0 183 -73t65 -186zM187 253q0 -65 24.5 -106.5t73.5 -41.5q48 0 71.5 40.5t23.5 105.5q0 149 -97 149q-48 0 -72 -41t-24 -106zM229 609q-25 0 -39 -8.5t-36 -34.5
l-65 64q16 34 47.5 58t68.5 24q36 0 76.5 -17.5t59.5 -17.5q49 0 70 43l74 -61q-43 -85 -136 -85q-33 0 -69 17.5t-51 17.5z" />
    <glyph glyph-name="odieresis" unicode="&#xf6;" horiz-adv-x="567" 
d="M532 256q0 -115 -65.5 -189.5t-182.5 -74.5q-119 0 -184 71.5t-65 183.5q0 117 68 192.5t181 75.5q118 0 183 -73t65 -186zM187 253q0 -65 24.5 -106.5t73.5 -41.5q48 0 71.5 40.5t23.5 105.5q0 149 -97 149q-48 0 -72 -41t-24 -106zM512 644q0 -35 -24 -58.5t-59 -23.5
q-36 0 -59.5 23.5t-23.5 58.5q0 34 23.5 57.5t59.5 23.5q35 0 59 -23.5t24 -57.5zM243 644q0 -35 -23.5 -58.5t-58.5 -23.5q-36 0 -59.5 23.5t-23.5 58.5q0 34 23.5 57.5t59.5 23.5q35 0 58.5 -23.5t23.5 -57.5z" />
    <glyph glyph-name="divide" unicode="&#xf7;" horiz-adv-x="589" 
d="M544 275h-499v130h499v-130zM366 164q0 -31 -22.5 -53.5t-53.5 -22.5t-53.5 22.5t-22.5 53.5t22.5 53.5t53.5 22.5t53.5 -22.5t22.5 -53.5zM366 516q0 -31 -22.5 -53.5t-53.5 -22.5t-53.5 22.5t-22.5 53.5t22.5 53.5t53.5 22.5t53.5 -22.5t22.5 -53.5z" />
    <glyph glyph-name="oslash" unicode="&#xf8;" horiz-adv-x="562" 
d="M532 256q0 -115 -65.5 -189.5t-182.5 -74.5q-63 0 -112 22l-16 -22h-121l57 80q-57 69 -57 175q0 117 68 192.5t181 75.5q59 0 111 -21l15 21h122l-58 -81q58 -68 58 -178zM169 253q0 -36 7 -64l156 217q-23 10 -49 10q-56 0 -85 -45.5t-29 -117.5zM285 89q57 0 85 45
t28 117q0 39 -7 68l-156 -218q21 -12 50 -12z" />
    <glyph glyph-name="ugrave" unicode="&#xf9;" 
d="M520 0h-146v81q-40 -85 -154 -85q-78 0 -121.5 43.5t-43.5 128.5v339h146v-306q0 -89 78 -89q95 0 95 127v268h146v-507zM351 553h-121l-111 177h146z" />
    <glyph glyph-name="uacute" unicode="&#xfa;" 
d="M520 0h-146v81q-40 -85 -154 -85q-78 0 -121.5 43.5t-43.5 128.5v339h146v-306q0 -89 78 -89q95 0 95 127v268h146v-507zM359 553h-121l86 177h146z" />
    <glyph glyph-name="ucircumflex" unicode="&#xfb;" 
d="M520 0h-146v81q-40 -85 -154 -85q-78 0 -121.5 43.5t-43.5 128.5v339h146v-306q0 -89 78 -89q95 0 95 127v268h146v-507zM209 554h-139l156 177h124l156 -177h-139l-79 96z" />
    <glyph glyph-name="udieresis" unicode="&#xfc;" 
d="M520 0h-146v81q-40 -85 -154 -85q-78 0 -121.5 43.5t-43.5 128.5v339h146v-306q0 -89 78 -89q95 0 95 127v268h146v-507zM504 643q0 -35 -24 -58.5t-59 -23.5q-36 0 -59.5 23.5t-23.5 58.5q0 34 23.5 57.5t59.5 23.5q35 0 59 -23.5t24 -57.5zM235 643q0 -35 -23.5 -58.5
t-58.5 -23.5q-36 0 -59.5 23.5t-23.5 58.5q0 34 23.5 57.5t59.5 23.5q35 0 58.5 -23.5t23.5 -57.5z" />
    <glyph glyph-name="yacute" unicode="&#xfd;" horiz-adv-x="532" 
d="M344 15q-79 -213 -241 -213q-31 0 -56 5v116q16 -4 34 -4q83 0 120 89l-196 499h159l55 -158q21 -61 34.5 -105t16.5 -58l3 -14q11 40 54 177l50 158h150zM345 554h-121l86 177h146z" />
    <glyph glyph-name="thorn" unicode="&#xfe;" horiz-adv-x="611" 
d="M206 -187h-146v894h146v-278q53 84 153 84q98 0 157.5 -69.5t59.5 -188.5q0 -113 -57.5 -187t-159.5 -74q-103 0 -153 81v-262zM206 259q0 -65 32 -104t82 -39q48 0 78 36.5t30 99.5q0 69 -30.5 104.5t-77.5 35.5q-46 0 -80 -35t-34 -98z" />
    <glyph glyph-name="ydieresis" unicode="&#xff;" horiz-adv-x="532" 
d="M344 15q-79 -213 -241 -213q-31 0 -56 5v116q16 -4 34 -4q83 0 120 89l-196 499h159l55 -158q21 -61 34.5 -105t16.5 -58l3 -14q11 40 54 177l50 158h150zM493 643q0 -35 -24 -58.5t-59 -23.5q-36 0 -59.5 23.5t-23.5 58.5q0 34 23.5 57.5t59.5 23.5q35 0 59 -23.5
t24 -57.5zM224 643q0 -35 -23.5 -58.5t-58.5 -23.5q-36 0 -59.5 23.5t-23.5 58.5q0 34 23.5 57.5t59.5 23.5q35 0 58.5 -23.5t23.5 -57.5z" />
    <glyph glyph-name="Amacron" unicode="&#x100;" horiz-adv-x="690" 
d="M269 286l-7 -24h162l-7 24q-29 98 -47.5 167t-22.5 89l-4 20q-8 -55 -74 -276zM184 0h-161l225 674h194l225 -674h-165l-41 138h-236zM527 761h-356v99h356v-99z" />
    <glyph glyph-name="amacron" unicode="&#x101;" horiz-adv-x="516" 
d="M246 100q31 0 48 19t17 52v37h-47q-37 0 -57 -16t-20 -41q0 -51 59 -51zM318 62q-32 -65 -126 -65q-74 0 -115.5 42t-41.5 105q0 73 53.5 113.5t158.5 40.5h64v35q0 64 -85 64q-82 0 -152 -46v131q60 34 173 34q108 0 161 -46.5t53 -144.5v-325h-143v62zM436 593h-356v99
h356v-99z" />
    <glyph glyph-name="Abreve" unicode="&#x102;" horiz-adv-x="690" 
d="M269 286l-7 -24h162l-7 24q-29 98 -47.5 167t-22.5 89l-4 20q-8 -55 -74 -276zM184 0h-161l225 674h194l225 -674h-165l-41 138h-236zM540 898q0 -93 -54.5 -137t-143.5 -44t-143.5 44t-54.5 137h112q0 -42 23.5 -65.5t62.5 -23.5t62.5 23.5t23.5 65.5h112z" />
    <glyph glyph-name="abreve" unicode="&#x103;" horiz-adv-x="516" 
d="M246 100q31 0 48 19t17 52v37h-47q-37 0 -57 -16t-20 -41q0 -51 59 -51zM318 62q-32 -65 -126 -65q-74 0 -115.5 42t-41.5 105q0 73 53.5 113.5t158.5 40.5h64v35q0 64 -85 64q-82 0 -152 -46v131q60 34 173 34q108 0 161 -46.5t53 -144.5v-325h-143v62zM455 730
q0 -93 -54.5 -137t-143.5 -44t-143.5 44t-54.5 137h112q0 -42 23.5 -65.5t62.5 -23.5t62.5 23.5t23.5 65.5h112z" />
    <glyph glyph-name="Aogonek" unicode="&#x104;" horiz-adv-x="680" 
d="M264 286l-7 -24h162l-7 24q-29 98 -47.5 167t-22.5 89l-4 20q-8 -55 -74 -276zM674 -235q-48 -25 -109 -25q-70 0 -103.5 33t-33.5 84q0 79 69 143l-41 138h-236l-41 -138h-161l225 674h194l225 -674q-118 -73 -118 -130q0 -34 43 -34q44 0 87 30v-101z" />
    <glyph glyph-name="aogonek" unicode="&#x105;" horiz-adv-x="511" 
d="M246 100q31 0 48 19t17 52v37h-47q-37 0 -57 -16t-20 -41q0 -51 59 -51zM473 -235q-48 -25 -109 -25q-70 0 -103.5 33t-33.5 84q0 85 91 153v52q-32 -65 -126 -65q-74 0 -115.5 42t-41.5 105q0 73 53.5 113.5t158.5 40.5h64v35q0 64 -85 64q-82 0 -152 -46v131
q60 34 173 34q108 0 161 -46.5t53 -144.5v-325q-118 -73 -118 -130q0 -34 43 -34q44 0 87 30v-101z" />
    <glyph glyph-name="Cacute" unicode="&#x106;" horiz-adv-x="613" 
d="M563 30q-61 -38 -176 -38q-148 0 -247.5 95.5t-99.5 247.5q0 154 96.5 251t251.5 97q114 0 175 -38v-148q-75 46 -167 46q-81 0 -136 -56.5t-55 -151.5q0 -93 55 -147.5t142 -54.5q94 0 161 48v-151zM425 721h-121l86 177h146z" />
    <glyph glyph-name="cacute" unicode="&#x107;" horiz-adv-x="469" 
d="M439 24q-59 -32 -142 -32q-114 0 -188 72.5t-74 187.5q2 114 74 188.5t197 74.5q77 0 133 -29v-125q-53 33 -118 33q-61 0 -99 -36.5t-39 -105.5q4 -67 40 -104t95 -37q63 0 121 35v-122zM358 553h-121l86 177h146z" />
    <glyph glyph-name="Ccaron" unicode="&#x10c;" horiz-adv-x="613" 
d="M563 30q-61 -38 -176 -38q-148 0 -247.5 95.5t-99.5 247.5q0 154 96.5 251t251.5 97q114 0 175 -38v-148q-75 46 -167 46q-81 0 -136 -56.5t-55 -151.5q0 -93 55 -147.5t142 -54.5q94 0 161 48v-151zM422 721h-124l-156 177h139l79 -96l79 96h139z" />
    <glyph glyph-name="ccaron" unicode="&#x10d;" horiz-adv-x="469" 
d="M439 24q-59 -32 -142 -32q-114 0 -188 72.5t-74 187.5q2 114 74 188.5t197 74.5q77 0 133 -29v-125q-53 33 -118 33q-61 0 -99 -36.5t-39 -105.5q4 -67 40 -104t95 -37q63 0 121 35v-122zM337 553h-124l-156 177h139l79 -96l79 96h139z" />
    <glyph glyph-name="Dcaron" unicode="&#x10e;" horiz-adv-x="683" 
d="M295 0h-230v674h232q152 0 249 -93.5t97 -232.5q0 -162 -95.5 -255t-252.5 -93zM292 547h-69v-421h70q93 0 143.5 58t50.5 164q0 90 -51 144.5t-144 54.5zM382 721h-124l-156 177h139l79 -96l79 96h139z" />
    <glyph glyph-name="dcaron" unicode="&#x10f;" horiz-adv-x="745" 
d="M183 252q0 -61 32 -98.5t78 -37.5q50 0 81 39t31 104q0 63 -33.5 98t-79.5 35t-77.5 -37t-31.5 -103zM551 0h-146v79q-51 -85 -152 -85q-99 0 -158.5 77t-59.5 184q0 120 62 189t157 69q99 0 151 -84v278h146v-707zM705 497h-106l71 211h151z" />
    <glyph glyph-name="Dcroat" unicode="&#x110;" horiz-adv-x="749" 
d="M361 0h-230v269h-66v124h66v281h232q152 0 249 -93.5t97 -232.5q0 -162 -95.5 -255t-252.5 -93zM427 269h-138v-143h70q93 0 143.5 58t50.5 164q0 90 -51 144.5t-144 54.5h-69v-154h138v-124z" />
    <glyph glyph-name="dcroat" unicode="&#x111;" horiz-adv-x="611" 
d="M183 252q0 -61 32 -98.5t78 -37.5q50 0 81 39t31 104q0 63 -33.5 98t-79.5 35t-77.5 -37t-31.5 -103zM551 0h-146v79q-51 -85 -152 -85q-99 0 -158.5 77t-59.5 184q0 120 62 189t157 69q99 0 151 -84v135h-151v82h151v61h146v-61h57v-82h-57v-564z" />
    <glyph glyph-name="Emacron" unicode="&#x112;" horiz-adv-x="544" 
d="M484 0h-419v674h415v-123h-260v-153h232v-122h-232v-153h264v-123zM450 764h-356v99h356v-99z" />
    <glyph glyph-name="emacron" unicode="&#x113;" horiz-adv-x="533" 
d="M458 29q-52 -34 -159 -34q-125 0 -194.5 72.5t-69.5 186.5q0 121 67.5 189.5t166.5 68.5q102 0 161 -59.5t59 -177.5q0 -23 -8 -79h-298q15 -42 52 -65t89 -23q77 0 134 43v-122zM275 401q-35 0 -62 -25.5t-36 -75.5h176v12q-7 89 -78 89zM448 593h-356v99h356v-99z" />
    <glyph glyph-name="Edotaccent" unicode="&#x116;" horiz-adv-x="544" 
d="M484 0h-419v674h415v-123h-260v-153h232v-122h-232v-153h264v-123zM364 810q0 -35 -23.5 -58.5t-58.5 -23.5q-36 0 -59.5 23.5t-23.5 58.5q0 34 23.5 57.5t59.5 23.5q35 0 58.5 -23.5t23.5 -57.5z" />
    <glyph glyph-name="edotaccent" unicode="&#x117;" horiz-adv-x="533" 
d="M458 29q-52 -34 -159 -34q-125 0 -194.5 72.5t-69.5 186.5q0 121 67.5 189.5t166.5 68.5q102 0 161 -59.5t59 -177.5q0 -23 -8 -79h-298q15 -42 52 -65t89 -23q77 0 134 43v-122zM275 401q-35 0 -62 -25.5t-36 -75.5h176v12q-7 89 -78 89zM362 643q0 -35 -23.5 -58.5
t-58.5 -23.5q-36 0 -59.5 23.5t-23.5 58.5q0 34 23.5 57.5t59.5 23.5q35 0 58.5 -23.5t23.5 -57.5z" />
    <glyph glyph-name="Eogonek" unicode="&#x118;" horiz-adv-x="544" 
d="M496 -235q-48 -25 -109 -25q-70 0 -103.5 33t-33.5 84q0 79 79 143h-264v674h415v-123h-260v-153h232v-122h-232v-153h264v-123q-118 -73 -118 -130q0 -34 43 -34q44 0 87 30v-101z" />
    <glyph glyph-name="eogonek" unicode="&#x119;" horiz-adv-x="533" 
d="M275 401q-35 0 -62 -25.5t-36 -75.5h176v12q-7 89 -78 89zM457 -213q-48 -25 -109 -25q-70 0 -103.5 33t-33.5 84q0 63 52 118q-109 10 -168.5 81t-59.5 176q0 121 67.5 189.5t166.5 68.5q102 0 161 -59.5t59 -177.5q0 -23 -8 -79h-298q15 -42 52 -65t89 -23q77 0 134 43
v-122q-2 -2 -7 -4.5l-7 -3.5q-117 -73 -117 -129q0 -34 43 -34q44 0 87 30v-101z" />
    <glyph glyph-name="Ecaron" unicode="&#x11a;" horiz-adv-x="544" 
d="M484 0h-419v674h415v-123h-260v-153h232v-122h-232v-153h264v-123zM341 721h-124l-156 177h139l79 -96l79 96h139z" />
    <glyph glyph-name="ecaron" unicode="&#x11b;" horiz-adv-x="533" 
d="M458 29q-52 -34 -159 -34q-125 0 -194.5 72.5t-69.5 186.5q0 121 67.5 189.5t166.5 68.5q102 0 161 -59.5t59 -177.5q0 -23 -8 -79h-298q15 -42 52 -65t89 -23q77 0 134 43v-122zM275 401q-35 0 -62 -25.5t-36 -75.5h176v12q-7 89 -78 89zM334 553h-124l-156 177h139
l79 -96l79 96h139z" />
    <glyph glyph-name="Gbreve" unicode="&#x11e;" horiz-adv-x="706" 
d="M646 62q-96 -70 -242 -70q-162 0 -263 93t-101 253q0 158 105.5 253t267.5 95q114 0 197 -42v-154q-96 55 -197 55q-95 0 -151 -56.5t-56 -150.5q0 -95 55 -151t150 -56q43 0 85 13v127h-109v131h259v-340zM576 898q0 -93 -54.5 -137t-143.5 -44t-143.5 44t-54.5 137h112
q0 -42 23.5 -65.5t62.5 -23.5t62.5 23.5t23.5 65.5h112z" />
    <glyph glyph-name="gbreve" unicode="&#x11f;" horiz-adv-x="585" 
d="M530 49q0 -122 -73 -183.5t-183 -61.5q-107 0 -187 38v149q70 -56 172 -56q66 0 96 28t30 88v34q-44 -68 -140 -68q-84 0 -144.5 62t-60.5 184q0 108 58.5 178.5t153.5 70.5q90 0 133 -72v67h145v-458zM192 262q0 -63 24 -96t69 -33q47 0 73.5 35.5t26.5 85.5
q0 136 -99 136q-44 0 -69 -34t-25 -94zM509 731q0 -93 -54.5 -137t-143.5 -44t-143.5 44t-54.5 137h112q0 -42 23.5 -65.5t62.5 -23.5t62.5 23.5t23.5 65.5h112z" />
    <glyph glyph-name="uni0122" unicode="&#x122;" horiz-adv-x="706" 
d="M646 62q-96 -70 -242 -70q-162 0 -263 93t-101 253q0 158 105.5 253t267.5 95q114 0 197 -42v-154q-96 55 -197 55q-95 0 -151 -56.5t-56 -150.5q0 -95 55 -151t150 -56q43 0 85 13v127h-109v131h259v-340zM335 -262h-106l71 211h151z" />
    <glyph glyph-name="uni0123" unicode="&#x123;" horiz-adv-x="585" 
d="M530 49q0 -122 -73 -183.5t-183 -61.5q-107 0 -187 38v149q70 -56 172 -56q66 0 96 28t30 88v34q-44 -68 -140 -68q-84 0 -144.5 62t-60.5 184q0 108 58.5 178.5t153.5 70.5q90 0 133 -72v67h145v-458zM192 262q0 -63 24 -96t69 -33q47 0 73.5 35.5t26.5 85.5
q0 136 -99 136q-44 0 -69 -34t-25 -94zM400 554h-151l116 211h106z" />
    <glyph glyph-name="Imacron" unicode="&#x12a;" horiz-adv-x="304" 
d="M229 0h-154v674h154v-674zM330 760h-356v99h356v-99z" />
    <glyph glyph-name="imacron" unicode="&#x12b;" horiz-adv-x="276" 
d="M211 0h-146v507h146v-507zM316 593h-356v99h356v-99z" />
    <glyph glyph-name="Iogonek" unicode="&#x12e;" horiz-adv-x="304" 
d="M241 -235q-48 -25 -109 -25q-70 0 -103.5 33t-33.5 84q0 79 80 144v673h154v-674q-118 -73 -118 -130q0 -34 43 -34q44 0 87 30v-101z" />
    <glyph glyph-name="iogonek" unicode="&#x12f;" horiz-adv-x="276" 
d="M223 654q0 -35 -25 -60t-60 -25t-60 25t-25 60t25 60t60 25t60 -25t25 -60zM223 -235q-48 -25 -109 -25q-70 0 -103.5 33t-33.5 84q0 81 88 150v500h146v-507q-118 -73 -118 -130q0 -34 43 -34q44 0 87 30v-101z" />
    <glyph glyph-name="Idotaccent" unicode="&#x130;" horiz-adv-x="304" 
d="M229 0h-154v674h154v-674zM236 810q0 -35 -23.5 -58.5t-58.5 -23.5q-36 0 -59.5 23.5t-23.5 58.5q0 34 23.5 57.5t59.5 23.5q35 0 58.5 -23.5t23.5 -57.5z" />
    <glyph glyph-name="dotlessi" unicode="&#x131;" horiz-adv-x="276" 
d="M211 0h-146v507h146v-507z" />
    <glyph glyph-name="uni0136" unicode="&#x136;" horiz-adv-x="662" 
d="M645 0h-193l-226 335l218 339h183l-221 -337zM295 -262h-106l71 211h151zM219 0h-154v674h154v-674z" />
    <glyph glyph-name="uni0137" unicode="&#x137;" horiz-adv-x="548" 
d="M206 0h-146v690h146v-410l160 227h168l-176 -243l179 -264h-169l-162 249v-249zM254 -262h-106l71 211h151z" />
    <glyph glyph-name="Lacute" unicode="&#x139;" horiz-adv-x="488" 
d="M468 0h-403v674h154v-539h249v-135zM377 721h-121l86 177h146z" />
    <glyph glyph-name="lacute" unicode="&#x13a;" horiz-adv-x="276" 
d="M211 0h-146v707h146v-707zM196 754h-121l86 177h146z" />
    <glyph glyph-name="uni013B" unicode="&#x13b;" horiz-adv-x="488" 
d="M245 -262h-106l71 211h151zM468 0h-403v674h154v-539h249v-135z" />
    <glyph glyph-name="uni013C" unicode="&#x13c;" horiz-adv-x="276" 
d="M211 0h-146v707h146v-707zM95 -262h-106l71 211h151z" />
    <glyph glyph-name="Lcaron" unicode="&#x13d;" horiz-adv-x="488" 
d="M468 0h-403v674h154v-539h249v-135zM385 488h-106l71 211h151z" />
    <glyph glyph-name="lcaron" unicode="&#x13e;" horiz-adv-x="276" 
d="M211 0h-146v707h146v-707zM375 498h-106l71 211h151z" />
    <glyph glyph-name="Lslash" unicode="&#x141;" horiz-adv-x="563" 
d="M443 383l-164 -92v-156h249v-135h-403v205l-80 -45v121l80 45v348h154v-262l164 92v-121z" />
    <glyph glyph-name="lslash" unicode="&#x142;" horiz-adv-x="341" 
d="M248 0h-146v263l-77 -53v121l77 53v323h146v-224l83 57v-121l-83 -57v-362z" />
    <glyph glyph-name="Nacute" unicode="&#x143;" horiz-adv-x="697" 
d="M219 0h-154v674h169l157 -279q33 -59 57.5 -110.5t31.5 -72.5l8 -22q-10 74 -10 205v279h154v-674h-169l-161 279q-32 54 -56.5 106.5t-33.5 77.5l-8 25q15 -90 15 -209v-279zM423 721h-121l86 177h146z" />
    <glyph glyph-name="nacute" unicode="&#x144;" 
d="M525 0h-146v302q0 45 -21 68.5t-59 23.5q-40 0 -66.5 -31.5t-26.5 -94.5v-268h-146v507h146v-86q19 42 58.5 66.5t94.5 24.5q78 0 122 -46.5t44 -136.5v-329zM379 554h-121l86 177h146z" />
    <glyph glyph-name="uni0145" unicode="&#x145;" horiz-adv-x="697" 
d="M219 0h-154v674h169l157 -279q33 -59 57.5 -110.5t31.5 -72.5l8 -22q-10 74 -10 205v279h154v-674h-169l-161 279q-32 54 -56.5 106.5t-33.5 77.5l-8 25q15 -90 15 -209v-279zM315 -262h-106l71 211h151z" />
    <glyph glyph-name="uni0146" unicode="&#x146;" 
d="M525 0h-146v302q0 45 -21 68.5t-59 23.5q-40 0 -66.5 -31.5t-26.5 -94.5v-268h-146v507h146v-86q19 42 58.5 66.5t94.5 24.5q78 0 122 -46.5t44 -136.5v-329zM255 -262h-106l71 211h151z" />
    <glyph glyph-name="Ncaron" unicode="&#x147;" horiz-adv-x="697" 
d="M219 0h-154v674h169l157 -279q33 -59 57.5 -110.5t31.5 -72.5l8 -22q-10 74 -10 205v279h154v-674h-169l-161 279q-32 54 -56.5 106.5t-33.5 77.5l-8 25q15 -90 15 -209v-279zM415 721h-124l-156 177h139l79 -96l79 96h139z" />
    <glyph glyph-name="ncaron" unicode="&#x148;" 
d="M525 0h-146v302q0 45 -21 68.5t-59 23.5q-40 0 -66.5 -31.5t-26.5 -94.5v-268h-146v507h146v-86q19 42 58.5 66.5t94.5 24.5q78 0 122 -46.5t44 -136.5v-329zM361 554h-124l-156 177h139l79 -96l79 96h139z" />
    <glyph glyph-name="Omacron" unicode="&#x14c;" horiz-adv-x="736" 
d="M696 339q0 -155 -89.5 -250.5t-238.5 -95.5q-150 0 -239 95t-89 251q0 155 89.5 250.5t238.5 95.5q150 0 239 -95t89 -251zM205 339q0 -95 44 -150.5t119 -55.5t119 55.5t44 150.5t-44 150.5t-119 55.5t-119 -55.5t-44 -150.5zM545 760h-356v99h356v-99z" />
    <glyph glyph-name="omacron" unicode="&#x14d;" horiz-adv-x="567" 
d="M532 256q0 -115 -65.5 -189.5t-182.5 -74.5q-119 0 -184 71.5t-65 183.5q0 117 68 192.5t181 75.5q118 0 183 -73t65 -186zM187 253q0 -65 24.5 -106.5t73.5 -41.5q48 0 71.5 40.5t23.5 105.5q0 149 -97 149q-48 0 -72 -41t-24 -106zM462 593h-356v99h356v-99z" />
    <glyph glyph-name="Ohungarumlaut" unicode="&#x150;" horiz-adv-x="736" 
d="M696 339q0 -155 -89.5 -250.5t-238.5 -95.5q-150 0 -239 95t-89 251q0 155 89.5 250.5t238.5 95.5q150 0 239 -95t89 -251zM205 339q0 -95 44 -150.5t119 -55.5t119 55.5t44 150.5t-44 150.5t-119 55.5t-119 -55.5t-44 -150.5zM523 721h-108l94 177h145zM336 721h-108
l86 177h133z" />
    <glyph glyph-name="ohungarumlaut" unicode="&#x151;" horiz-adv-x="567" 
d="M532 256q0 -115 -65.5 -189.5t-182.5 -74.5q-119 0 -184 71.5t-65 183.5q0 117 68 192.5t181 75.5q118 0 183 -73t65 -186zM187 253q0 -65 24.5 -106.5t73.5 -41.5q48 0 71.5 40.5t23.5 105.5q0 149 -97 149q-48 0 -72 -41t-24 -106zM446 554h-108l94 177h145zM259 554
h-108l86 177h133z" />
    <glyph glyph-name="OE" unicode="&#x152;" horiz-adv-x="1000" 
d="M205 339q0 -95 42 -150.5t116 -55.5t116 55.5t42 150.5t-42 150.5t-116 55.5t-116 -55.5t-42 -150.5zM940 0h-419v44q-70 -51 -158 -51q-149 0 -236 94.5t-87 251.5q0 156 87 251t236 95q88 0 158 -50v39h415v-123h-270v-153h242v-122h-242v-153h274v-123z" />
    <glyph glyph-name="oe" unicode="&#x153;" horiz-adv-x="879" 
d="M187 253q0 -65 24.5 -106.5t73.5 -41.5t75.5 41t26.5 105q0 65 -26 107t-78 42q-48 0 -72 -41t-24 -106zM627 401q-35 0 -62 -25.5t-36 -75.5h176l-1 21q-9 80 -77 80zM810 29q-52 -34 -159 -34q-117 0 -191 74q-67 -77 -176 -77q-119 0 -184 71.5t-65 183.5
q0 117 68 192.5t181 75.5q108 0 174 -72q69 69 163 69q102 0 161 -59.5t59 -177.5q0 -23 -8 -79h-298q15 -42 52 -65t89 -23q77 0 134 43v-122z" />
    <glyph glyph-name="Racute" unicode="&#x154;" horiz-adv-x="614" 
d="M295 549h-76v-190h73q100 0 100 98q0 43 -26 67.5t-71 24.5zM219 0h-154v674h233q113 0 181.5 -60t68.5 -156q0 -144 -123 -199l171 -259h-184l-146 234h-47v-234zM355 721h-121l86 177h146z" />
    <glyph glyph-name="racute" unicode="&#x155;" horiz-adv-x="370" 
d="M205 0h-146l1 507h145v-94q14 44 46.5 70.5t75.5 26.5q24 0 38 -4v-138q-24 11 -55 11q-47 0 -76 -34.5t-29 -91.5v-253zM280 554h-121l86 177h146z" />
    <glyph glyph-name="uni0156" unicode="&#x156;" horiz-adv-x="614" 
d="M295 549h-76v-190h73q100 0 100 98q0 43 -26 67.5t-71 24.5zM271 -262h-106l71 211h151zM219 0h-154v674h233q113 0 181.5 -60t68.5 -156q0 -144 -123 -199l171 -259h-184l-146 234h-47v-234z" />
    <glyph glyph-name="uni0157" unicode="&#x157;" horiz-adv-x="370" 
d="M86 -262h-106l71 211h151zM205 0h-146l1 507h145v-94q14 44 46.5 70.5t75.5 26.5q24 0 38 -4v-138q-24 11 -55 11q-47 0 -76 -34.5t-29 -91.5v-253z" />
    <glyph glyph-name="Rcaron" unicode="&#x158;" horiz-adv-x="614" 
d="M295 549h-76v-190h73q100 0 100 98q0 43 -26 67.5t-71 24.5zM219 0h-154v674h233q113 0 181.5 -60t68.5 -156q0 -144 -123 -199l171 -259h-184l-146 234h-47v-234zM378 721h-124l-156 177h139l79 -96l79 96h139z" />
    <glyph glyph-name="rcaron" unicode="&#x159;" horiz-adv-x="370" 
d="M205 0h-146l1 507h145v-94q14 44 46.5 70.5t75.5 26.5q24 0 38 -4v-138q-24 11 -55 11q-47 0 -76 -34.5t-29 -91.5v-253zM274 554h-124l-156 177h139l79 -96l79 96h139z" />
    <glyph glyph-name="Sacute" unicode="&#x15a;" horiz-adv-x="514" 
d="M484 196q0 -91 -67 -147.5t-178 -56.5q-119 0 -194 42v155q91 -66 194 -66q35 0 58 18.5t23 48.5q0 10 -3 19t-11 17t-15.5 13.5t-22 13t-24.5 12.5t-29.5 14t-31.5 14q-65 30 -104.5 74t-39.5 117q0 87 64 140.5t177 53.5q101 0 174 -34v-144q-81 47 -168 47
q-39 0 -59.5 -16t-20.5 -41t25 -44.5t75 -41.5q31 -14 51.5 -24.5t47 -29t42 -39t26.5 -50.5t11 -65zM323 721h-121l86 177h146z" />
    <glyph glyph-name="sacute" unicode="&#x15b;" horiz-adv-x="436" 
d="M406 153q0 -75 -54 -116t-143 -41q-92 0 -154 31v130q69 -48 146 -48q55 0 55 35q0 9 -5 17t-17 15t-22 11.5t-29 12.5t-29 13q-101 48 -101 144q0 74 56.5 115t140.5 41q78 0 130 -21v-125q-53 31 -124 31q-26 0 -40 -10.5t-14 -26.5q0 -9 5 -17t16.5 -15t22 -12.5
t29 -13.5t29.5 -14q46 -24 74 -55.5t28 -80.5zM302 554h-121l86 177h146z" />
    <glyph glyph-name="uni015E" unicode="&#x15e;" horiz-adv-x="514" 
d="M484 196q0 -91 -67 -147.5t-178 -56.5q-119 0 -194 42v155q91 -66 194 -66q35 0 58 18.5t23 48.5q0 10 -3 19t-11 17t-15.5 13.5t-22 13t-24.5 12.5t-29.5 14t-31.5 14q-65 30 -104.5 74t-39.5 117q0 87 64 140.5t177 53.5q101 0 174 -34v-144q-81 47 -168 47
q-39 0 -59.5 -16t-20.5 -41t25 -44.5t75 -41.5q31 -14 51.5 -24.5t47 -29t42 -39t26.5 -50.5t11 -65zM339 -125q0 -63 -45.5 -103t-133.5 -40v91q36 0 55.5 17t19.5 47q0 28 -26 62h113q17 -27 17 -74z" />
    <glyph glyph-name="uni015F" unicode="&#x15f;" horiz-adv-x="436" 
d="M406 153q0 -75 -54 -116t-143 -41q-92 0 -154 31v130q69 -48 146 -48q55 0 55 35q0 9 -5 17t-17 15t-22 11.5t-29 12.5t-29 13q-101 48 -101 144q0 74 56.5 115t140.5 41q78 0 130 -21v-125q-53 31 -124 31q-26 0 -40 -10.5t-14 -26.5q0 -9 5 -17t16.5 -15t22 -12.5
t29 -13.5t29.5 -14q46 -24 74 -55.5t28 -80.5zM299 -125q0 -63 -45.5 -103t-133.5 -40v91q36 0 55.5 17t19.5 47q0 28 -26 62h113q17 -27 17 -74z" />
    <glyph glyph-name="Scaron" unicode="&#x160;" horiz-adv-x="514" 
d="M484 196q0 -91 -67 -147.5t-178 -56.5q-119 0 -194 42v155q91 -66 194 -66q35 0 58 18.5t23 48.5q0 10 -3 19t-11 17t-15.5 13.5t-22 13t-24.5 12.5t-29.5 14t-31.5 14q-65 30 -104.5 74t-39.5 117q0 87 64 140.5t177 53.5q101 0 174 -34v-144q-81 47 -168 47
q-39 0 -59.5 -16t-20.5 -41t25 -44.5t75 -41.5q31 -14 51.5 -24.5t47 -29t42 -39t26.5 -50.5t11 -65zM328 721h-124l-156 177h139l79 -96l79 96h139z" />
    <glyph glyph-name="scaron" unicode="&#x161;" horiz-adv-x="436" 
d="M406 153q0 -75 -54 -116t-143 -41q-92 0 -154 31v130q69 -48 146 -48q55 0 55 35q0 9 -5 17t-17 15t-22 11.5t-29 12.5t-29 13q-101 48 -101 144q0 74 56.5 115t140.5 41q78 0 130 -21v-125q-53 31 -124 31q-26 0 -40 -10.5t-14 -26.5q0 -9 5 -17t16.5 -15t22 -12.5
t29 -13.5t29.5 -14q46 -24 74 -55.5t28 -80.5zM301 553h-124l-156 177h139l79 -96l79 96h139z" />
    <glyph glyph-name="uni0162" unicode="&#x162;" horiz-adv-x="544" 
d="M514 550h-164v-550h-155v550h-165v124h484v-124zM349 -125q0 -63 -45.5 -103t-133.5 -40v91q36 0 55.5 17t19.5 47q0 28 -26 62h113q17 -27 17 -74z" />
    <glyph glyph-name="uni0163" unicode="&#x163;" horiz-adv-x="386" 
d="M356 11q-37 -16 -100 -16q-173 0 -173 173v232h-73v107h73v120h146v-120h118v-107h-118v-233q0 -27 15.5 -41t40.5 -14q40 0 71 20v-121zM289 -125q0 -63 -45.5 -103t-133.5 -40v91q36 0 55.5 17t19.5 47q0 28 -26 62h113q17 -27 17 -74z" />
    <glyph glyph-name="Tcaron" unicode="&#x164;" horiz-adv-x="544" 
d="M514 550h-164v-550h-155v550h-165v124h484v-124zM334 721h-124l-156 177h139l79 -96l79 96h139z" />
    <glyph glyph-name="tcaron" unicode="&#x165;" horiz-adv-x="386" 
d="M356 11q-37 -16 -100 -16q-173 0 -173 173v232h-73v107h73v120h146v-120h118v-107h-118v-233q0 -27 15.5 -41t40.5 -14q40 0 71 20v-121zM386 588h-106l71 211h151z" />
    <glyph glyph-name="Umacron" unicode="&#x16a;" horiz-adv-x="668" 
d="M608 261q0 -132 -74 -201.5t-200 -69.5q-124 0 -199 69t-75 195v420h154v-419q0 -125 120 -125t120 130v414h154v-413zM520 760h-356v99h356v-99z" />
    <glyph glyph-name="umacron" unicode="&#x16b;" 
d="M520 0h-146v81q-40 -85 -154 -85q-78 0 -121.5 43.5t-43.5 128.5v339h146v-306q0 -89 78 -89q95 0 95 127v268h146v-507zM464 593h-356v99h356v-99z" />
    <glyph glyph-name="Uring" unicode="&#x16e;" horiz-adv-x="668" 
d="M608 261q0 -132 -74 -201.5t-200 -69.5q-124 0 -199 69t-75 195v420h154v-419q0 -125 120 -125t120 130v414h154v-413zM472 846q0 -56 -40 -96t-96 -40t-96 40t-40 96t40 96t96 40t96 -40t40 -96zM283 849q0 -23 15 -39.5t38 -16.5t38 16.5t15 39.5t-15 39.5t-38 16.5
t-38 -16.5t-15 -39.5z" />
    <glyph glyph-name="uring" unicode="&#x16f;" 
d="M520 0h-146v81q-40 -85 -154 -85q-78 0 -121.5 43.5t-43.5 128.5v339h146v-306q0 -89 78 -89q95 0 95 127v268h146v-507zM427 679q0 -56 -40 -96t-96 -40t-96 40t-40 96t40 96t96 40t96 -40t40 -96zM238 682q0 -23 15 -39.5t38 -16.5t38 16.5t15 39.5t-15 39.5t-38 16.5
t-38 -16.5t-15 -39.5z" />
    <glyph glyph-name="Uhungarumlaut" unicode="&#x170;" horiz-adv-x="668" 
d="M608 261q0 -132 -74 -201.5t-200 -69.5q-124 0 -199 69t-75 195v420h154v-419q0 -125 120 -125t120 130v414h154v-413zM485 721h-108l94 177h145zM298 721h-108l86 177h133z" />
    <glyph glyph-name="uhungarumlaut" unicode="&#x171;" 
d="M520 0h-146v81q-40 -85 -154 -85q-78 0 -121.5 43.5t-43.5 128.5v339h146v-306q0 -89 78 -89q95 0 95 127v268h146v-507zM445 554h-108l94 177h145zM258 554h-108l86 177h133z" />
    <glyph glyph-name="Uogonek" unicode="&#x172;" horiz-adv-x="668" 
d="M608 261q0 -98 -42.5 -162.5t-117.5 -90.5q-118 -73 -118 -130q0 -34 43 -34q44 0 87 30v-101q-48 -25 -109 -25q-70 0 -103.5 33t-33.5 84q0 68 63 129q-100 15 -158.5 82t-58.5 178v420h154v-419q0 -125 120 -125t120 130v414h154v-413z" />
    <glyph glyph-name="uogonek" unicode="&#x173;" 
d="M532 -235q-48 -25 -109 -25q-70 0 -103.5 33t-33.5 84q0 81 88 150v74q-40 -85 -154 -85q-78 0 -121.5 43.5t-43.5 128.5v339h146v-306q0 -89 78 -89q95 0 95 127v268h146v-507q-118 -73 -118 -130q0 -34 43 -34q44 0 87 30v-101z" />
    <glyph glyph-name="Ydieresis" unicode="&#x178;" horiz-adv-x="643" 
d="M397 0h-154v247l-230 427h180l41 -98q32 -76 53 -130t27 -70l5 -16q10 45 88 216l44 98h179l-233 -426v-248zM546 809q0 -35 -24 -58.5t-59 -23.5q-36 0 -59.5 23.5t-23.5 58.5q0 34 23.5 57.5t59.5 23.5q35 0 59 -23.5t24 -57.5zM277 809q0 -35 -23.5 -58.5t-58.5 -23.5
q-36 0 -59.5 23.5t-23.5 58.5q0 34 23.5 57.5t59.5 23.5q35 0 58.5 -23.5t23.5 -57.5z" />
    <glyph glyph-name="Zacute" unicode="&#x179;" horiz-adv-x="621" 
d="M561 0h-501v113l302 437h-296v124h483v-109l-304 -441h316v-124zM393 721h-121l86 177h146z" />
    <glyph glyph-name="zacute" unicode="&#x17a;" horiz-adv-x="479" 
d="M439 0h-399v105l222 290h-213v112h378v-101l-222 -293h234v-113zM321 553h-121l86 177h146z" />
    <glyph glyph-name="Zdotaccent" unicode="&#x17b;" horiz-adv-x="621" 
d="M561 0h-501v113l302 437h-296v124h483v-109l-304 -441h316v-124zM411 810q0 -35 -23.5 -58.5t-58.5 -23.5q-36 0 -59.5 23.5t-23.5 58.5q0 34 23.5 57.5t59.5 23.5q35 0 58.5 -23.5t23.5 -57.5z" />
    <glyph glyph-name="zdotaccent" unicode="&#x17c;" horiz-adv-x="479" 
d="M439 0h-399v105l222 290h-213v112h378v-101l-222 -293h234v-113zM334 642q0 -35 -23.5 -58.5t-58.5 -23.5q-36 0 -59.5 23.5t-23.5 58.5q0 34 23.5 57.5t59.5 23.5q35 0 58.5 -23.5t23.5 -57.5z" />
    <glyph glyph-name="Zcaron" unicode="&#x17d;" horiz-adv-x="621" 
d="M561 0h-501v113l302 437h-296v124h483v-109l-304 -441h316v-124zM382 721h-124l-156 177h139l79 -96l79 96h139z" />
    <glyph glyph-name="zcaron" unicode="&#x17e;" horiz-adv-x="479" 
d="M439 0h-399v105l222 290h-213v112h378v-101l-222 -293h234v-113zM321 554h-124l-156 177h139l79 -96l79 96h139z" />
    <glyph glyph-name="florin" unicode="&#x192;" horiz-adv-x="522" 
d="M270 -42q-15 -98 -66 -156t-138 -58q-61 0 -96 15v118q32 -16 72 -16q38 0 56.5 26.5t26.5 80.5l48 311h-87v107h104l12 79q15 98 66 156t138 58q57 0 86 -10v-118q-28 11 -57 11q-72 0 -88 -107l-11 -69h96v-107h-112z" />
    <glyph glyph-name="uni0218" unicode="&#x218;" horiz-adv-x="514" 
d="M484 196q0 -91 -67 -147.5t-178 -56.5q-119 0 -194 42v155q91 -66 194 -66q35 0 58 18.5t23 48.5q0 10 -3 19t-11 17t-15.5 13.5t-22 13t-24.5 12.5t-29.5 14t-31.5 14q-65 30 -104.5 74t-39.5 117q0 87 64 140.5t177 53.5q101 0 174 -34v-144q-81 47 -168 47
q-39 0 -59.5 -16t-20.5 -41t25 -44.5t75 -41.5q31 -14 51.5 -24.5t47 -29t42 -39t26.5 -50.5t11 -65zM225 -262h-106l71 211h151z" />
    <glyph glyph-name="uni0219" unicode="&#x219;" horiz-adv-x="436" 
d="M406 153q0 -75 -54 -116t-143 -41q-92 0 -154 31v130q69 -48 146 -48q55 0 55 35q0 9 -5 17t-17 15t-22 11.5t-29 12.5t-29 13q-101 48 -101 144q0 74 56.5 115t140.5 41q78 0 130 -21v-125q-53 31 -124 31q-26 0 -40 -10.5t-14 -26.5q0 -9 5 -17t16.5 -15t22 -12.5
t29 -13.5t29.5 -14q46 -24 74 -55.5t28 -80.5zM185 -262h-106l71 211h151z" />
    <glyph glyph-name="uni021A" unicode="&#x21a;" horiz-adv-x="544" 
d="M231 -262h-106l71 211h151zM514 550h-164v-550h-155v550h-165v124h484v-124z" />
    <glyph glyph-name="uni021B" unicode="&#x21b;" horiz-adv-x="386" 
d="M356 11q-37 -16 -100 -16q-173 0 -173 173v232h-73v107h73v120h146v-120h118v-107h-118v-233q0 -27 15.5 -41t40.5 -14q40 0 71 20v-121zM214 -262h-106l71 211h151z" />
    <glyph glyph-name="circumflex" unicode="&#x2c6;" horiz-adv-x="500" 
d="M171 621h-139l156 177h124l156 -177h-139l-79 96z" />
    <glyph glyph-name="caron" unicode="&#x2c7;" horiz-adv-x="500" 
d="M312 621h-124l-156 177h139l79 -96l79 96h139z" />
    <glyph glyph-name="uni02C9" unicode="&#x2c9;" horiz-adv-x="500" 
d="M428 651h-356v99h356v-99z" />
    <glyph glyph-name="breve" unicode="&#x2d8;" horiz-adv-x="500" 
d="M448 798q0 -93 -54.5 -137t-143.5 -44t-143.5 44t-54.5 137h112q0 -42 23.5 -65.5t62.5 -23.5t62.5 23.5t23.5 65.5h112z" />
    <glyph glyph-name="dotaccent" unicode="&#x2d9;" horiz-adv-x="500" 
d="M332 711q0 -35 -23.5 -58.5t-58.5 -23.5q-36 0 -59.5 23.5t-23.5 58.5q0 34 23.5 57.5t59.5 23.5q35 0 58.5 -23.5t23.5 -57.5z" />
    <glyph glyph-name="ring" unicode="&#x2da;" horiz-adv-x="500" 
d="M386 710q0 -56 -40 -96t-96 -40t-96 40t-40 96t40 96t96 40t96 -40t40 -96zM197 713q0 -23 15 -39.5t38 -16.5t38 16.5t15 39.5t-15 39.5t-38 16.5t-38 -16.5t-15 -39.5z" />
    <glyph glyph-name="ogonek" unicode="&#x2db;" horiz-adv-x="500" 
d="M373 -221q-48 -25 -109 -25q-70 0 -103.5 33t-33.5 84q0 39 20 75t52 62t59 42t54 28l49 -64q-118 -73 -118 -130q0 -34 43 -34q44 0 87 30v-101z" />
    <glyph glyph-name="tilde" unicode="&#x2dc;" horiz-adv-x="500" 
d="M192 656q-25 0 -39 -8.5t-36 -34.5l-65 64q16 34 47.5 58t68.5 24q36 0 76.5 -17.5t59.5 -17.5q48 0 70 43l74 -61q-42 -85 -136 -85q-33 0 -69 17.5t-51 17.5z" />
    <glyph glyph-name="hungarumlaut" unicode="&#x2dd;" horiz-adv-x="500" 
d="M332 621h-108l94 177h145zM145 621h-108l86 177h133z" />
    <glyph glyph-name="pi" unicode="&#x3c0;" horiz-adv-x="606" 
d="M596 400h-80v-400h-146v400h-124v-184q0 -121 -48.5 -168.5t-158.5 -47.5v119q34 0 47.5 16.5t13.5 65.5v199h-80v107h576v-107z" />
    <glyph glyph-name="tmAnusvara" unicode="&#xb82;" horiz-adv-x="0" 
d="M134 799q0 -55 -37.5 -90t-96.5 -35t-96.5 35t-37.5 90t37.5 89.5t96.5 34.5t96.5 -34.5t37.5 -89.5zM-46 799q0 -22 12.5 -36.5t33.5 -14.5t33.5 14.5t12.5 36.5t-12.5 36.5t-33.5 14.5t-33.5 -14.5t-12.5 -36.5z" />
    <glyph glyph-name="tmVisarga" unicode="&#xb83;" horiz-adv-x="740" 
d="M507 449q0 -61 -41.5 -99.5t-106.5 -38.5t-106.5 38.5t-41.5 99.5t41 99t107 38t107 -38t41 -99zM308 449q0 -25 14 -40.5t37 -15.5t37 15.5t14 40.5t-14 40.5t-37 15.5t-37 -15.5t-14 -40.5zM710 128q0 -61 -41.5 -99.5t-106.5 -38.5t-106.5 38.5t-41.5 99.5t41 99
t107 38t107 -38t41 -99zM511 128q0 -25 13.5 -40.5t37.5 -15.5t37.5 15.5t13.5 40.5t-13.5 40.5t-37.5 15.5t-37.5 -15.5t-13.5 -40.5zM326 128q0 -61 -41.5 -99.5t-106.5 -38.5t-106.5 38.5t-41.5 99.5t41 99t107 38t107 -38t41 -99zM127 128q0 -25 13.5 -40.5t37.5 -15.5
t37.5 15.5t13.5 40.5t-13.5 40.5t-37.5 15.5t-37.5 -15.5t-13.5 -40.5z" />
    <glyph glyph-name="tmA" unicode="&#xb85;" horiz-adv-x="1020" 
d="M21 114l-1 130h570q7 31 7 72q0 73 -38 114.5t-93 41.5q-52 0 -52 -41q0 -42 52 -42q26 0 55 9v-97q-31 -15 -78 -15q-76 0 -120.5 36.5t-44.5 107.5q0 69 48 112.5t131 43.5q124 0 196 -80.5t72 -189.5q0 -38 -6 -72h86v332h140v-576h-140v153h-115q-41 -85 -126 -130.5
t-199 -45.5q-112 0 -201 38t-143 99zM368 84q121 0 180 69l-396 -1q69 -68 216 -68z" />
    <glyph glyph-name="tmAA" unicode="&#xb86;" horiz-adv-x="1307" 
d="M556 -180v118q136 -61 296 -61q265 0 265 241q0 53 -21 90.5t-62 37.5q-38 0 -61.5 -25.5t-27.5 -71.5v-149h-140v153h-115q-41 -85 -126 -130.5t-199 -45.5q-112 0 -201 38t-143 99l-1 130h570q7 31 7 72q0 73 -38 114.5t-93 41.5q-52 0 -52 -41q0 -42 52 -42q26 0 55 9
v-97q-31 -15 -78 -15q-76 0 -120.5 36.5t-44.5 107.5q0 69 48 112.5t131 43.5q124 0 196 -80.5t72 -189.5q0 -38 -6 -72h86v332h140v-301q45 89 138 89q84 0 131.5 -72.5t47.5 -170.5q0 -172 -109.5 -265t-300.5 -93q-167 0 -296 57zM368 84q121 0 180 69l-396 -1
q69 -68 216 -68z" />
    <glyph glyph-name="tmI" unicode="&#xb87;" horiz-adv-x="1145" 
d="M543 258q89 0 171 -13q5 33 5 59q0 58 -28 94.5t-79 36.5q-70 0 -70 -73q0 -14 4 -30h-133q-4 18 -4 40q0 76 54.5 125.5t142.5 50.5q119 1 181 -67.5t62 -175.5q0 -42 -11 -89q106 -35 168 -95t62 -146q0 -89 -66 -144.5t-191 -55.5q-130 0 -264 70q-123 -70 -264 -70
q-123 0 -190.5 53t-67.5 148q0 152 188 226q-39 98 -39 197q0 177 120 281.5t331 104.5q244 0 359.5 -127.5t115.5 -362.5v-52h-138v52q0 181 -78 279.5t-259 98.5q-145 0 -232 -66.5t-87 -207.5q0 -83 31 -161q100 20 206 20zM543 148q-81 0 -152 -11q59 -87 157 -155
q82 64 129 156q-66 10 -134 10zM813 -112q123 0 123 88q0 87 -137 134q-52 -106 -142 -187q84 -35 156 -35zM283 -112q75 0 151 29q-104 82 -170 186q-107 -44 -107 -126q0 -89 126 -89z" />
    <glyph glyph-name="tmII" unicode="&#xb88;" horiz-adv-x="806" 
d="M589 464v-464h-142v464h-230v-464h-142v576h615v-112h-101zM332 182q-32 0 -54 22t-22 54t22 54t54 22t54 -22t22 -54t-22 -54t-54 -22zM705 182q-31 0 -53.5 22t-22.5 54t22.5 54t53.5 22t53.5 -22t22.5 -54t-22.5 -54t-53.5 -22z" />
    <glyph glyph-name="tmU" unicode="&#xb89;" horiz-adv-x="886" 
d="M238 251q136 0 136 123q0 43 -27.5 72.5t-77.5 29.5q-28 0 -43.5 -12t-15.5 -34q0 -41 56 -41q25 0 49 8v-93q-28 -13 -73 -13q-75 0 -121.5 36.5t-46.5 101.5q0 70 51.5 113.5t138.5 43.5q110 0 174 -61.5t64 -151.5q0 -102 -70 -161t-181 -59h-44q-22 0 -33 -4.5
t-11 -19.5t10.5 -19.5t33.5 -4.5h669v-105h-668q-28 0 -50.5 2t-49.5 9.5t-45 21t-30.5 37.5t-12.5 57q0 124 185 124h33z" />
    <glyph glyph-name="tmUU" unicode="&#xb8a;" horiz-adv-x="1378" 
d="M730 150q-89 0 -139 54.5t-50 141.5q0 102 64 169t169 67q112 0 158 -70v62h426v-101h-76v-315h-122v315h-106v-315h-123v195q0 56 -37 92t-104 36q-61 0 -98.5 -34t-41.5 -91q11 22 39 37t60 15q58 0 95 -35t37 -91q0 -59 -41 -95.5t-110 -36.5zM678 281q0 -23 14 -35.5
t36 -12.5t36 12.5t14 35.5t-14 36t-36 13t-36 -13t-14 -36zM238 251q136 0 136 123q0 43 -27.5 72.5t-77.5 29.5q-28 0 -43.5 -12t-15.5 -34q0 -41 56 -41q25 0 49 8v-93q-28 -13 -73 -13q-75 0 -121.5 36.5t-46.5 101.5q0 70 51.5 113.5t138.5 43.5q110 0 174 -61.5
t64 -151.5q0 -102 -70 -161t-181 -59h-44q-22 0 -33 -4.5t-11 -19.5t10.5 -19.5t33.5 -4.5h1151v-105h-1150q-28 0 -50.5 2t-49.5 9.5t-45 21t-30.5 37.5t-12.5 57q0 124 185 124h33z" />
    <glyph glyph-name="tmE" unicode="&#xb8e;" horiz-adv-x="788" 
d="M480 172q0 -81 -54 -131.5t-144 -50.5q-111 0 -176.5 71t-65.5 188q0 159 104 243t288 84h346v-112h-99v-464h-140v464h-104q-235 0 -255 -181q33 63 123 63q73 0 125 -48t52 -126zM204 171q0 -32 20 -49.5t53 -17.5q34 0 54 17.5t20 49.5t-20 49.5t-54 17.5
q-33 0 -53 -17.5t-20 -49.5z" />
    <glyph glyph-name="tmEE" unicode="&#xb8f;" horiz-adv-x="788" 
d="M204 171q0 -32 20 -49.5t53 -17.5q34 0 54 17.5t20 49.5t-20 49.5t-54 17.5q-33 0 -53 -17.5t-20 -49.5zM391 -201l148 235v430h-104q-235 0 -255 -181q33 63 123 63q73 0 125 -48t52 -126q0 -81 -54 -131.5t-144 -50.5q-111 0 -176.5 71t-65.5 188q0 159 104 243t288 84
h346v-112h-99v-433l-146 -232h-142z" />
    <glyph glyph-name="tmAI" unicode="&#xb90;" horiz-adv-x="911" 
d="M693 82h139q22 -56 22 -117q0 -84 -49.5 -137.5t-150.5 -53.5q-70 0 -123 35t-64 102q-15 -64 -64.5 -100.5t-128.5 -36.5q-99 0 -161.5 53.5t-62.5 145.5q0 239 329 239h141q109 0 152.5 44t43.5 126q0 43 -21 69t-57 26q-40 0 -60.5 -36.5t-20.5 -98.5v-52h-139v28
q0 68 -39 113t-113 45q-36 0 -57.5 -16t-21.5 -45q0 -56 75 -56q35 0 72 10v-109q-35 -11 -88 -11q-82 0 -135 41t-53 123q0 77 57 125t143 48q91 0 147.5 -40.5t70.5 -112.5q10 71 57 112t116 41q100 0 153.5 -59.5t53.5 -149.5q0 -132 -80 -204.5t-221 -72.5h-140
q-118 0 -170.5 -31.5t-52.5 -95.5q0 -40 26 -63.5t68 -23.5q53 0 82 37.5t29 95.5v7h142v-12q0 -58 24.5 -93t73.5 -35q38 0 59 23t21 62q0 59 -24 111z" />
    <glyph glyph-name="tmO" unicode="&#xb92;" horiz-adv-x="980" 
d="M212 -159l1 113q94 -59 189 -59q66 0 151 36q14 6 32 14t28 12.5t23 9t24 6.5q-66 13 -103 63t-37 119q0 95 51 178h138q-24 -44 -24 -81q0 -29 16 -46t42 -17q59 0 59 70q0 94 -92.5 154.5t-227.5 60.5q-109 0 -193 -39.5t-109 -114.5q42 51 116 51q70 0 118.5 -45.5
t48.5 -121.5q0 -78 -53 -126.5t-143 -48.5q-99 0 -163 61t-64 168q0 101 60 177t159.5 113.5t222.5 37.5q208 0 333 -95t125 -238q0 -79 -42.5 -126.5t-118.5 -47.5q-49 0 -82.5 22.5t-42.5 60.5q-6 -22 -6 -42q0 -47 32 -77.5t92 -30.5h87v-112h-20q-11 0 -21.5 -0.5
t-18.5 -1t-18.5 -3t-16 -3.5t-17 -5t-15.5 -5.5t-17.5 -7.5t-18 -7.5t-21.5 -9.5t-23 -11q-47 -21 -75 -32t-74.5 -21t-96.5 -10q-108 0 -194 58zM198 203q0 -30 19.5 -47.5t50.5 -17.5q32 0 51.5 17.5t19.5 47.5t-19.5 47t-51.5 17q-31 0 -50.5 -17t-19.5 -47z" />
    <glyph glyph-name="tmOO" unicode="&#xb93;" horiz-adv-x="980" 
d="M392 -17v-97q-5 1 -17 1q-40 0 -40 -34t49 -34q24 0 59 13.5t52.5 23.5t56.5 33q66 39 119 50q-70 15 -110.5 78.5t-40.5 137.5q0 95 51 178h138q-24 -44 -24 -81q0 -29 16 -46t43 -17q58 0 58 70q0 94 -92.5 154.5t-227.5 60.5q-113 0 -196.5 -40t-106.5 -116
q42 53 119 53q70 0 117.5 -45.5t47.5 -121.5q0 -78 -53 -126.5t-143 -48.5q-99 0 -163 61t-64 168q0 102 59 177t158 113t225 38q209 0 333.5 -95t124.5 -238q0 -79 -42.5 -126.5t-118.5 -47.5q-49 0 -82.5 22.5t-42.5 60.5q-6 -22 -6 -42q0 -52 33 -97t91 -45h87v-112h-20
q-16 0 -30 -1t-30.5 -6t-24.5 -7t-28.5 -11.5t-25.5 -11.5t-32 -16t-32 -17t-50 -27.5t-66 -34t-62 -21t-77 -11.5q-84 0 -134 39.5t-50 110.5q0 60 39.5 98t101.5 38q29 0 54 -5zM198 203q0 -30 19.5 -47.5t50.5 -17.5q32 0 51.5 17.5t19.5 47.5t-19.5 47t-51.5 17
q-31 0 -50.5 -17t-19.5 -47z" />
    <glyph glyph-name="tmAU" unicode="&#xb94;" horiz-adv-x="2042" 
d="M212 -159l1 113q94 -59 189 -59q66 0 151 36q14 6 32 14t28 12.5t23 9t24 6.5q-66 13 -103 63t-37 119q0 95 51 178h138q-24 -44 -24 -81q0 -29 16 -46t42 -17q59 0 59 70q0 94 -92.5 154.5t-227.5 60.5q-109 0 -193 -39.5t-109 -114.5q42 51 116 51q70 0 118.5 -45.5
t48.5 -121.5q0 -78 -53 -126.5t-143 -48.5q-99 0 -163 61t-64 168q0 101 60 177t159.5 113.5t222.5 37.5q208 0 333 -95t125 -238q0 -79 -42.5 -126.5t-118.5 -47.5q-49 0 -82.5 22.5t-42.5 60.5q-6 -22 -6 -42q0 -47 32 -77.5t92 -30.5h87v-112h-20q-11 0 -21.5 -0.5
t-18.5 -1t-18.5 -3t-16 -3.5t-17 -5t-15.5 -5.5t-17.5 -7.5t-18 -7.5t-21.5 -9.5t-23 -11q-47 -21 -75 -32t-74.5 -21t-96.5 -10q-108 0 -194 58zM198 203q0 -30 19.5 -47.5t50.5 -17.5q32 0 51.5 17.5t19.5 47.5t-19.5 47t-51.5 17q-31 0 -50.5 -17t-19.5 -47zM1252 -10
q-103 0 -167 76t-65 194q0 135 79 230.5t214 95.5q76 0 129 -34t77 -87v111h513v-112h-100v-464h-142v464h-141v-464h-142v293q0 70 -47.5 125.5t-129.5 55.5q-80 0 -126 -54t-51 -146q15 30 51.5 51t80.5 21q71 0 117 -48t46 -126q0 -80 -53.5 -131t-142.5 -51zM1185 171
q0 -31 19 -49t48 -18q31 0 49 17.5t18 49.5t-18 49.5t-49 17.5q-29 0 -48 -18t-19 -49z" />
    <glyph glyph-name="tmKA" unicode="&#xb95;" horiz-adv-x="849" 
d="M274 465v-115h130v115h-130zM266 95q138 0 138 143h-142q-87 0 -87 -71q0 -37 25 -54.5t66 -17.5zM588 350q106 0 166 -48t60 -132q0 -88 -48.5 -134t-133.5 -46q-35 0 -70 5v110q14 -2 35 -2q77 0 77 67q0 38 -20 53t-66 15h-44q-2 -118 -69 -187t-210 -69
q-107 0 -168.5 48t-61.5 137q0 120 99 162v247h509v-112h-99v-114h44z" />
    <glyph glyph-name="tmNGA" unicode="&#xb99;" horiz-adv-x="1092" 
d="M875 576h142v-575h-99l-561 -1v112h188q55 0 85 28t30 74q0 36 -22 56.5t-58 20.5q-42 0 -61.5 -25t-19.5 -59v-15h-142v272h-140v-464h-142v576h534v-112h-110v-152q15 41 51.5 66t83.5 25q71 0 114.5 -42t43.5 -107q0 -95 -80 -142h163v464z" />
    <glyph glyph-name="tmCA" unicode="&#xb9a;" horiz-adv-x="723" 
d="M713 350v-112h-169q-2 -116 -72 -186t-207 -70q-107 0 -168.5 48t-61.5 137q0 120 99 162v247h509v-112h-99v-114h169zM274 465v-115h130v115h-130zM266 95q138 0 138 143h-142q-87 0 -87 -71q0 -37 25 -54.5t66 -17.5z" />
    <glyph glyph-name="tmJA" unicode="&#xb9c;" horiz-adv-x="920" 
d="M676 -25q-43 0 -78.5 -20t-62.5 -48.5t-57 -57t-77.5 -48.5t-108.5 -20q-106 0 -171.5 55.5t-65.5 147.5q0 115 88.5 173t245.5 58h94q112 0 173 43t61 131q0 40 -20.5 64t-57.5 24q-39 0 -60 -35.5t-21 -91.5v-57h-139v33q0 67 -39 108.5t-113 41.5q-37 0 -58 -16
t-21 -45q0 -56 75 -56q35 0 72 10v-109q-35 -11 -88 -11q-82 0 -135 41t-53 123q0 78 57 125.5t146 47.5q179 0 215 -153q10 71 57 112t116 41q99 0 153 -56t54 -144q0 -132 -99.5 -207.5t-239.5 -75.5h-101q-220 0 -220 -120q0 -41 27.5 -65.5t71.5 -24.5q33 0 64.5 20
t59.5 48.5t60.5 57t82 48.5t108.5 20q87 0 140.5 -42.5t53.5 -115.5q0 -74 -48.5 -114t-127.5 -40q-53 0 -90 14v106q42 -10 73 -10q70 0 70 47q0 43 -66 43z" />
    <glyph glyph-name="tmNYA" unicode="&#xb9e;" horiz-adv-x="1289" 
d="M1070 374q80 0 129.5 -65t49.5 -159q0 -190 -160 -299.5t-420 -109.5q-136 0 -248.5 30.5t-195.5 90t-129 153t-46 212.5q0 99 30.5 191.5t78.5 157.5h152q-119 -166 -119 -349q0 -96 37 -169t102.5 -117t150.5 -66t187 -22q194 0 314.5 76.5t120.5 217.5q0 48 -23 78.5
t-60 30.5q-42 0 -66 -31t-24 -88v-137h-140v464h-104q-235 0 -255 -182q37 64 125 64q73 0 124 -47.5t51 -126.5q0 -81 -53.5 -131.5t-144.5 -50.5q-108 0 -172.5 71.5t-64.5 187.5q0 157 102.5 242t284.5 85h346v-112h-99v-181q44 91 139 91zM456 171q0 -32 20 -49.5
t53 -17.5q34 0 54 17.5t20 49.5t-20 49.5t-54 17.5q-33 0 -53 -17.5t-20 -49.5z" />
    <glyph glyph-name="tmTTA" unicode="&#xb9f;" horiz-adv-x="822" 
d="M802 0h-727v576h142v-460h585v-116z" />
    <glyph glyph-name="tmNNA" unicode="&#xba3;" horiz-adv-x="1683" 
d="M266 -10q-100 0 -162.5 65t-63.5 180q0 155 116.5 253t308.5 98q136 0 243 -59q104 59 227 59q124 0 231 -62q104 52 235 52h272v-112h-100v-464h-142v464h-26q-77 0 -138 -21q95 -105 95 -236q0 -104 -57.5 -160.5t-141.5 -56.5t-142 57t-58 160q0 143 99 242
q-61 25 -128 25q-66 0 -125 -24q102 -107 102 -244q0 -103 -56 -159.5t-142 -56.5t-143.5 56t-57.5 160q0 133 96 240q-65 28 -145 28q-122 0 -200 -51.5t-93 -142.5q41 66 126 66q72 0 119 -48t47 -126q0 -81 -53 -131.5t-143 -50.5zM1163 102q30 0 47.5 28t17.5 78
q0 97 -65 170q-66 -69 -66 -170q0 -50 17.5 -78t48.5 -28zM712 102q65 0 65 103q0 99 -68 172q-63 -72 -63 -172q0 -48 17 -75.5t49 -27.5zM199 171q0 -31 18.5 -49t47.5 -18q31 0 49.5 17.5t18.5 49.5t-18.5 49.5t-49.5 17.5q-29 0 -47.5 -18t-18.5 -49z" />
    <glyph glyph-name="tmTA" unicode="&#xba4;" horiz-adv-x="833" 
d="M293 465v-115h130v115h-130zM269 95q154 0 154 143h-162q-87 0 -87 -71q0 -36 26 -54t69 -18zM793 96q0 -142 -92.5 -223t-280.5 -81q-30 0 -95.5 3.5t-91.5 3.5q-115 0 -203 -45v119q79 38 203 38q35 0 97 -3.5t90 -3.5q123 0 175.5 46.5t52.5 145.5q0 50 -20.5 87.5
t-64.5 49.5q-3 -117 -77 -184t-218 -67q-108 0 -171 48t-63 137q0 131 119 169v240h509v-112h-99v-116q115 -11 172.5 -82t57.5 -170z" />
    <glyph glyph-name="tmNA" unicode="&#xba8;" horiz-adv-x="862" 
d="M499 464v-191q44 91 139 91q86 0 137.5 -68.5t51.5 -164.5q0 -156 -101.5 -247.5t-295.5 -91.5q-30 0 -95.5 3.5t-91.5 3.5q-123 0 -219 -53v119q87 46 219 46q35 0 97 -3.5t90 -3.5q252 0 252 227q0 53 -23.5 84t-69.5 31q-42 0 -66 -31t-24 -88v-127h-142v464h-140
v-464h-142v576h525v-112h-101z" />
    <glyph glyph-name="tmNNNA" unicode="&#xba9;" horiz-adv-x="1228" 
d="M712 -10q-88 0 -144.5 56t-56.5 160q0 143 92 243q-62 25 -139 25q-125 0 -207 -59t-89 -159q12 36 46.5 63t84.5 27q71 0 117 -48t46 -126q0 -81 -53 -131.5t-143 -50.5q-100 0 -162.5 65t-63.5 180q0 155 118 253t308 98q135 0 243 -58q94 48 218 48h291v-112h-100
v-464h-142v464h-45q-67 0 -118 -17q97 -105 97 -241q0 -103 -55.5 -159.5t-142.5 -56.5zM711 102q65 0 65 103q0 101 -70 176q-61 -68 -61 -176q0 -48 17 -75.5t49 -27.5zM199 171q0 -31 18.5 -49t47.5 -18q31 0 49.5 17.5t18.5 49.5t-18.5 49.5t-49.5 17.5q-29 0 -47.5 -18
t-18.5 -49z" />
    <glyph glyph-name="tmPA" unicode="&#xbaa;" horiz-adv-x="865" 
d="M790 0h-715v576h145v-460h425v460h145v-576z" />
    <glyph glyph-name="tmMA" unicode="&#xbae;" horiz-adv-x="927" 
d="M580 -1l-505 1v575h142v-464h178v280q0 90 54.5 142t154.5 52q126 0 199.5 -89.5t73.5 -210.5q0 -138 -78 -212t-219 -74zM537 388v-277h31q87 0 127 42t40 132q0 76 -32 132t-97 56q-69 0 -69 -85z" />
    <glyph glyph-name="tmYA" unicode="&#xbaf;" horiz-adv-x="1021" 
d="M943 0h-531v75q-49 -85 -150 -85q-80 0 -133.5 50.5t-53.5 137.5v398h142v-393q0 -37 21.5 -59t62.5 -22t62 22t21 60v392h142v-460h275v460h145z" />
    <glyph glyph-name="tmRA" unicode="&#xbb0;" horiz-adv-x="645" 
d="M75 0v576h560v-112h-98v-430l-148 -235h-155l161 255v410h-178v-464h-142z" />
    <glyph glyph-name="tmRRA" unicode="&#xbb1;" horiz-adv-x="859" 
d="M46 -245v119q99 43 210 43q28 0 89 -4.5t85 -4.5q60 0 104 19.5t68.5 50.5t39 80t18.5 95.5t4 109.5q0 100 -22 155.5t-77 55.5q-31 0 -49.5 -20t-18.5 -54v-400h-142v400q0 36 -18 55t-50 19q-31 0 -50 -18.5t-19 -54.5v-401h-143v392q0 93 50 143.5t144 50.5
q67 0 106.5 -32t50.5 -77q10 44 49 76.5t102 32.5q78 0 131.5 -44.5t77 -115.5t23.5 -163q0 -467 -379 -467q-27 0 -87 4.5t-85 4.5q-99 0 -212 -50z" />
    <glyph glyph-name="tmLA" unicode="&#xbb2;" horiz-adv-x="1020" 
d="M40 260q0 139 89 232.5t244 93.5q133 0 210.5 -73.5t76.5 -207.5v-109q3 -94 79 -94q93 0 93 157q0 167 -96 317h146q88 -141 88 -317q0 -127 -62 -198t-170 -71q-100 0 -156.5 59t-56.5 156v99q0 170 -154 170q-87 0 -140 -55.5t-58 -144.5q15 30 51.5 51t80.5 21
q71 0 117 -48t46 -126q0 -80 -53.5 -131t-142.5 -51q-103 0 -167 76t-65 194zM205 171q0 -31 19 -49t48 -18q31 0 49 17.5t18 49.5t-18 49.5t-49 17.5q-29 0 -48 -18t-19 -49z" />
    <glyph glyph-name="tmLLA" unicode="&#xbb3;" horiz-adv-x="1062" 
d="M272 -10q-103 0 -167 76t-65 194q0 135 79 230.5t214 95.5q76 0 129 -34t77 -87v111h513v-112h-100v-464h-142v464h-141v-464h-142v293q0 70 -47.5 125.5t-129.5 55.5q-80 0 -126 -54t-51 -146q15 30 51.5 51t80.5 21q71 0 117 -48t46 -126q0 -80 -53.5 -131t-142.5 -51z
M205 171q0 -31 19 -49t48 -18q31 0 49 17.5t18 49.5t-18 49.5t-49 17.5q-29 0 -48 -18t-19 -49z" />
    <glyph glyph-name="tmLLLA" unicode="&#xbb4;" horiz-adv-x="927" 
d="M114 -229l1 113q94 -59 189 -59q48 0 125 28q61 22 85 27q-56 10 -85 39.5t-29 71.5v8l-325 1v575h142v-464h178v280q0 90 54.5 142t154.5 52q126 0 199.5 -89.5t73.5 -210.5q0 -138 -78 -212t-219 -74h-38v-9q0 -40 21.5 -56.5t81.5 -16.5h77v-112h-10q-61 0 -101 -7.5
t-96 -33.5q-113 -51 -210 -51q-105 0 -191 58zM537 388v-277h31q87 0 127 42t40 132q0 76 -32 132t-97 56q-69 0 -69 -85z" />
    <glyph glyph-name="tmVA" unicode="&#xbb5;" horiz-adv-x="1050" 
d="M833 576h142v-576h-446v92q55 77 55 182q0 88 -52.5 144t-155.5 56q-94 0 -146 -54t-57 -146q15 30 51.5 51t80.5 21q71 0 117 -48t46 -126q0 -80 -53.5 -131t-142.5 -51q-103 0 -167 76t-65 194q0 137 89 231.5t249 94.5q153 0 248 -88t93 -224q0 -94 -42 -162h156v464z
M205 171q0 -31 19 -49t48 -18q31 0 49 17.5t18 49.5t-18 49.5t-49 17.5q-29 0 -48 -18t-19 -49z" />
    <glyph glyph-name="tmSHA" unicode="&#xbb6;" horiz-adv-x="1174" 
d="M862 102q101 0 101 156v202h-167v-294q0 -64 66 -64zM1104 576v-318q0 -129 -64.5 -198.5t-183.5 -69.5q-96 0 -149 48t-53 128v294h-129v-202q0 -129 -64.5 -198.5t-183.5 -69.5q-96 0 -149 48t-53 128v410h142v-410q0 -64 66 -64q101 0 101 156v318h720z" />
    <glyph glyph-name="tmSSA" unicode="&#xbb7;" horiz-adv-x="1316" 
d="M1306 0h-100v-191h-135v191h-541v92h-1q55 77 55 182q0 88 -52.5 144t-155.5 56q-94 0 -146 -54t-57 -146q15 30 51.5 51t80.5 21q71 0 117 -48t46 -126q0 -80 -53.5 -131t-142.5 -51q-103 0 -167 76t-65 194q0 137 89 231.5t249 94.5q153 0 248 -88t93 -224
q0 -94 -42 -162h192q-86 52 -86 161q0 99 63.5 164t171.5 65q89 0 138.5 -47t49.5 -126v-217h100v-112zM923 272q0 -73 40 -116.5t108 -43.5v223q0 57 -54 57q-44 0 -69 -34.5t-25 -85.5zM205 171q0 -31 19 -49t48 -18q31 0 49 17.5t18 49.5t-18 49.5t-49 17.5
q-29 0 -48 -18t-19 -49z" />
    <glyph glyph-name="tmSA" unicode="&#xbb8;" horiz-adv-x="1297" 
d="M747 586q86 0 138 -53.5t52 -141.5v-195q3 -94 79 -94q93 0 93 164q0 149 -96 310h146q88 -147 88 -310q0 -128 -61.5 -202t-170.5 -74q-100 0 -156.5 59t-56.5 156v196q0 35 -19 54t-49 19t-49.5 -18.5t-19.5 -53.5v-402h-142v311q0 70 -43.5 116.5t-125.5 46.5
q-80 0 -128 -55.5t-53 -144.5q15 30 51.5 51t80.5 21q71 0 117 -48t46 -126q0 -80 -53.5 -131t-142.5 -51q-103 0 -167 76t-65 194q0 139 83 232.5t231 93.5q79 0 137 -34.5t87 -94.5q16 59 60 94t109 35zM205 171q0 -31 19 -49t48 -18q31 0 49 17.5t18 49.5t-18 49.5
t-49 17.5q-29 0 -48 -18t-19 -49z" />
    <glyph glyph-name="tmHA" unicode="&#xbb9;" horiz-adv-x="1617" 
d="M40 260q0 137 89 231.5t249 94.5q153 0 248 -88t93 -224q0 -94 -42 -162h156v280q0 93 50 143.5t144 50.5q67 0 106.5 -32t50.5 -77q10 44 49 76.5t102 32.5q78 0 131.5 -44.5t77 -115.5t23.5 -163q0 -103 -22 -186t-70 -150t-133.5 -104t-203.5 -37q-177 0 -425.5 9.5
t-423.5 9.5q-159 0 -272 -50v119q99 43 270 43q178 0 427.5 -9.5t423.5 -9.5q83 0 140 27t87.5 78.5t43.5 114t13 145.5q0 100 -22 155.5t-77 55.5q-31 0 -49.5 -20t-18.5 -54v-400h-142v400q0 36 -18 55t-50 19q-31 0 -50 -18.5t-19 -54.5v-401h-447v92q55 77 55 182
q0 88 -52.5 144t-155.5 56q-94 0 -146 -54t-57 -146q15 30 51.5 51t80.5 21q71 0 117 -48t46 -126q0 -80 -53.5 -131t-142.5 -51q-103 0 -167 76t-65 194zM205 171q0 -31 19 -49t48 -18q31 0 49 17.5t18 49.5t-18 49.5t-49 17.5q-29 0 -48 -18t-19 -49z" />
    <glyph glyph-name="tmmAA" unicode="&#xbbe;" horiz-adv-x="645" 
d="M537 0h-142v464h-178v-464h-142v576h560v-112h-98v-464z" />
    <glyph glyph-name="tmmI" unicode="&#xbbf;" horiz-adv-x="292" 
d="M217 0h-142v564q0 65 -35.5 101t-101.5 36q-43 0 -68.5 -16.5t-25.5 -49.5q0 -27 19 -43t55 -16v-84q-88 -1 -149 39.5t-61 109.5q0 78 63.5 125t165.5 47q130 0 205 -68.5t75 -180.5v-564z" />
    <glyph glyph-name="tmmII" unicode="&#xbc0;" horiz-adv-x="0" 
d="M-8 769q0 26 -23.5 41.5t-66.5 15.5h-11q-1 -5 -1 -15q0 -39 16 -61t44 -22q42 0 42 41zM-110 576l-28 -31q-105 0 -170 41t-65 121q0 97 77.5 157t197.5 60q89 0 142.5 -43t53.5 -113q0 -60 -40 -97t-108 -37q-67 0 -107.5 40.5t-40.5 96.5q0 14 3 29q-58 -39 -58 -111
q0 -55 39 -84t104 -29z" />
    <glyph glyph-name="tmmU" unicode="&#xbc1;" horiz-adv-x="0" 
d="M25 391q0 42 19 73h-246v112h419q89 0 148.5 -48t59.5 -131q0 -80 -57 -130.5t-147 -50.5q-87 0 -141 46t-55 129zM157 398q0 -31 19 -49.5t51 -18.5t51 18.5t19 49.5t-19 49.5t-51 18.5t-51 -18.5t-19 -49.5z" />
    <glyph glyph-name="tmmUU" unicode="&#xbc2;" horiz-adv-x="0" 
d="M545 257h-130q58 94 58 196q0 76 -46.5 121t-125.5 45q-84 0 -127 -43h25q80 0 129 -41t49 -117q0 -69 -44 -113.5t-123 -44.5q-89 0 -141.5 57.5t-53.5 146.5h-196v112h219q31 68 100.5 106.5t164.5 38.5q136 0 214.5 -72t77.5 -196q0 -118 -50 -196zM210 363
q24 0 38.5 14t14.5 37q0 48 -68 50h-60q1 -47 21 -74t54 -27z" />
    <glyph glyph-name="tmmE" unicode="&#xbc6;" horiz-adv-x="845" 
d="M770 0h-142v531q0 83 -43 131t-124 48q-120 0 -191.5 -99.5t-71.5 -250.5q0 -56 9 -93q18 41 59.5 65.5t89.5 24.5q78 0 130.5 -51.5t52.5 -131.5q0 -82 -52 -134.5t-141 -52.5q-95 0 -162.5 55t-97.5 137.5t-31 180.5q0 200 109 331t297 131q140 0 224.5 -76t84.5 -211
v-535zM273 173q0 -31 18.5 -51.5t49.5 -20.5q32 0 50.5 20.5t18.5 51.5t-18.5 51.5t-50.5 20.5q-31 0 -49.5 -20.5t-18.5 -51.5z" />
    <glyph glyph-name="tmmEE" unicode="&#xbc7;" horiz-adv-x="685" 
d="M423 -13q-164 0 -270.5 116t-107.5 300q1 188 108.5 302t267.5 114q85 0 144.5 -52t59.5 -130q0 -79 -52 -127t-130 -47q-77 1 -124.5 44.5t-47.5 111.5v2q-83 -83 -83 -218q0 -146 83 -221q1 70 46.5 115.5t125.5 45.5q78 0 130 -47.5t52 -126.5q0 -81 -54 -131.5
t-148 -50.5zM359 168q0 -32 18.5 -49.5t49.5 -17.5t50 17.5t19 49.5t-19 49.5t-50 17.5t-49.5 -17.5t-18.5 -49.5zM496 638q0 32 -19 49.5t-50 17.5t-49.5 -17.5t-18.5 -49.5t18.5 -49.5t49.5 -17.5t50 17.5t19 49.5z" />
    <glyph glyph-name="tmmAI" unicode="&#xbc8;" horiz-adv-x="1274" 
d="M921 205q0 -95 -54 -155t-144 -60q-88 0 -145.5 60.5t-57.5 169.5q0 130 75 232q-69 22 -149 22q-105 0 -179.5 -48t-93.5 -130q35 50 119 50q77 0 124 -47.5t47 -126.5q0 -80 -53.5 -131t-142.5 -51q-103 0 -164.5 69t-62.5 181q0 152 113 249t295 97q130 0 238 -50
q80 50 181 50q170 0 263.5 -92.5t93.5 -240.5q0 -125 -65 -253h-147q69 138 69 253q0 99 -54.5 160t-159.5 61q-37 0 -69 -12q123 -111 123 -257zM787 208q0 109 -82 182q-51 -73 -51 -174q0 -51 17 -82.5t51 -31.5q33 0 49 30t16 76zM200 171q0 -31 19 -49t48 -18
q31 0 49 17.5t18 49.5t-18 49.5t-49 17.5q-29 0 -48 -18t-19 -49z" />
    <glyph glyph-name="tmmO" unicode="&#xbca;" horiz-adv-x="2093" 
d="M1098 90q0 -20 -12.5 -33t-31.5 -13t-32 13t-13 33q0 18 13 31t32 13t31.5 -13t12.5 -31zM996 165q0 -19 -12.5 -31.5t-31.5 -12.5q-20 0 -32 12.5t-12 31.5t12.5 31.5t31.5 12.5t31.5 -12.5t12.5 -31.5zM944 281q0 -19 -12.5 -31t-31.5 -12t-31.5 12t-12.5 31t12.5 32
t31.5 13t31.5 -12.5t12.5 -32.5zM1225 74q0 -19 -12.5 -31.5t-32.5 -12.5t-32 12t-12 32t12 32t32 12t32.5 -12.5t12.5 -31.5zM959 407q0 -19 -13 -31.5t-31 -12.5q-20 0 -33 12.5t-13 31.5t13 31.5t33 12.5q18 0 31 -12.5t13 -31.5zM1346 127q0 -19 -13 -31.5t-32 -12.5
t-31.5 12.5t-12.5 31.5t12.5 31.5t31.5 12.5t32 -12.5t13 -31.5zM1039 517q0 -20 -12.5 -32.5t-31.5 -12.5t-31.5 12.5t-12.5 32.5q0 19 12.5 31.5t31.5 12.5t31.5 -12.5t12.5 -31.5zM1418 225q0 -19 -12.5 -31.5t-30.5 -12.5q-19 0 -32 12.5t-13 31.5t13 32t32 13
q18 0 30.5 -13t12.5 -32zM1157 560q0 -20 -12.5 -32t-31.5 -12t-31.5 12t-12.5 32t12.5 32t31.5 12t31.5 -12t12.5 -32zM1428 359q0 -19 -12.5 -31.5t-31.5 -12.5q-20 0 -32 12.5t-12 31.5t12 31.5t32 12.5q19 0 31.5 -12.5t12.5 -31.5zM1283 545q0 -18 -12.5 -31t-30.5 -13
q-19 0 -32 13t-13 31q0 19 12.5 32t32.5 13q19 0 31 -12.5t12 -32.5zM1378 477q0 -19 -12.5 -31.5t-31.5 -12.5t-31.5 12.5t-12.5 31.5t12.5 32t31.5 13t31.5 -12.5t12.5 -32.5zM770 0h-142v531q0 83 -43 131t-124 48q-120 0 -191.5 -99.5t-71.5 -250.5q0 -56 9 -93
q18 41 59.5 65.5t89.5 24.5q78 0 130.5 -51.5t52.5 -131.5q0 -82 -52 -134.5t-141 -52.5q-95 0 -162.5 55t-97.5 137.5t-31 180.5q0 200 109 331t297 131q140 0 224.5 -76t84.5 -211v-535zM273 173q0 -31 18.5 -51.5t49.5 -20.5q32 0 50.5 20.5t18.5 51.5t-18.5 51.5
t-50.5 20.5q-31 0 -49.5 -20.5t-18.5 -51.5zM1975 0h-142v464h-178v-464h-142v576h560v-112h-98v-464z" />
    <glyph glyph-name="tmmOO" unicode="&#xbcb;" horiz-adv-x="1881" 
d="M886 90q0 -20 -12.5 -33t-31.5 -13t-32 13t-13 33q0 18 13 31t32 13t31.5 -13t12.5 -31zM784 165q0 -19 -12.5 -31.5t-31.5 -12.5q-20 0 -32 12.5t-12 31.5t12.5 31.5t31.5 12.5t31.5 -12.5t12.5 -31.5zM732 281q0 -19 -12.5 -31t-31.5 -12t-31.5 12t-12.5 31t12.5 32
t31.5 13t31.5 -12.5t12.5 -32.5zM1013 74q0 -19 -12.5 -31.5t-32.5 -12.5t-32 12t-12 32t12 32t32 12t32.5 -12.5t12.5 -31.5zM747 407q0 -19 -13 -31.5t-31 -12.5q-20 0 -33 12.5t-13 31.5t13 31.5t33 12.5q18 0 31 -12.5t13 -31.5zM1134 127q0 -19 -13 -31.5t-32 -12.5
t-31.5 12.5t-12.5 31.5t12.5 31.5t31.5 12.5t32 -12.5t13 -31.5zM827 517q0 -20 -12.5 -32.5t-31.5 -12.5t-31.5 12.5t-12.5 32.5q0 19 12.5 31.5t31.5 12.5t31.5 -12.5t12.5 -31.5zM1206 225q0 -19 -12.5 -31.5t-30.5 -12.5q-19 0 -32 12.5t-13 31.5t13 32t32 13
q18 0 30.5 -13t12.5 -32zM945 560q0 -20 -12.5 -32t-31.5 -12t-31.5 12t-12.5 32t12.5 32t31.5 12t31.5 -12t12.5 -32zM1216 359q0 -19 -12.5 -31.5t-31.5 -12.5q-20 0 -32 12.5t-12 31.5t12 31.5t32 12.5q19 0 31.5 -12.5t12.5 -31.5zM1071 545q0 -18 -12.5 -31t-30.5 -13
q-19 0 -32 13t-13 31q0 19 12.5 32t32.5 13q19 0 31 -12.5t12 -32.5zM1166 477q0 -19 -12.5 -31.5t-31.5 -12.5t-31.5 12.5t-12.5 31.5t12.5 32t31.5 13t31.5 -12.5t12.5 -32.5zM423 -13q-164 0 -270.5 116t-107.5 300q1 188 108.5 302t267.5 114q85 0 144.5 -52t59.5 -130
q0 -79 -52 -127t-130 -47q-77 1 -124.5 44.5t-47.5 111.5v2q-83 -83 -83 -218q0 -146 83 -221q1 70 46.5 115.5t125.5 45.5q78 0 130 -47.5t52 -126.5q0 -81 -54 -131.5t-148 -50.5zM359 168q0 -32 18.5 -49.5t49.5 -17.5t50 17.5t19 49.5t-19 49.5t-50 17.5t-49.5 -17.5
t-18.5 -49.5zM496 638q0 32 -19 49.5t-50 17.5t-49.5 -17.5t-18.5 -49.5t18.5 -49.5t49.5 -17.5t50 17.5t19 49.5zM1763 0h-142v464h-178v-464h-142v576h560v-112h-98v-464z" />
    <glyph glyph-name="tmmAU" unicode="&#xbcc;" horiz-adv-x="2530" 
d="M1096 90q0 -20 -12.5 -33t-31.5 -13t-32 13t-13 33q0 18 13 31t32 13t31.5 -13t12.5 -31zM994 165q0 -19 -12.5 -31.5t-31.5 -12.5q-20 0 -32 12.5t-12 31.5t12.5 31.5t31.5 12.5t31.5 -12.5t12.5 -31.5zM942 281q0 -19 -12.5 -31t-31.5 -12t-31.5 12t-12.5 31t12.5 32
t31.5 13t31.5 -12.5t12.5 -32.5zM1223 74q0 -19 -12.5 -31.5t-32.5 -12.5t-32 12t-12 32t12 32t32 12t32.5 -12.5t12.5 -31.5zM957 407q0 -19 -13 -31.5t-31 -12.5q-20 0 -33 12.5t-13 31.5t13 31.5t33 12.5q18 0 31 -12.5t13 -31.5zM1344 127q0 -19 -13 -31.5t-32 -12.5
t-31.5 12.5t-12.5 31.5t12.5 31.5t31.5 12.5t32 -12.5t13 -31.5zM1037 517q0 -20 -12.5 -32.5t-31.5 -12.5t-31.5 12.5t-12.5 32.5q0 19 12.5 31.5t31.5 12.5t31.5 -12.5t12.5 -31.5zM1416 225q0 -19 -12.5 -31.5t-30.5 -12.5q-19 0 -32 12.5t-13 31.5t13 32t32 13
q18 0 30.5 -13t12.5 -32zM1155 560q0 -20 -12.5 -32t-31.5 -12t-31.5 12t-12.5 32t12.5 32t31.5 12t31.5 -12t12.5 -32zM1426 359q0 -19 -12.5 -31.5t-31.5 -12.5q-20 0 -32 12.5t-12 31.5t12 31.5t32 12.5q19 0 31.5 -12.5t12.5 -31.5zM1281 545q0 -18 -12.5 -31t-30.5 -13
q-19 0 -32 13t-13 31q0 19 12.5 32t32.5 13q19 0 31 -12.5t12 -32.5zM1376 477q0 -19 -12.5 -31.5t-31.5 -12.5t-31.5 12.5t-12.5 31.5t12.5 32t31.5 13t31.5 -12.5t12.5 -32.5zM770 0h-142v531q0 83 -43 131t-124 48q-120 0 -191.5 -99.5t-71.5 -250.5q0 -56 9 -93
q18 41 59.5 65.5t89.5 24.5q78 0 130.5 -51.5t52.5 -131.5q0 -82 -52 -134.5t-141 -52.5q-95 0 -162.5 55t-97.5 137.5t-31 180.5q0 200 109 331t297 131q140 0 224.5 -76t84.5 -211v-535zM273 173q0 -31 18.5 -51.5t49.5 -20.5q32 0 50.5 20.5t18.5 51.5t-18.5 51.5
t-50.5 20.5q-31 0 -49.5 -20.5t-18.5 -51.5zM1734 -10q-103 0 -167 76t-65 194q0 135 79 230.5t214 95.5q76 0 129 -34t77 -87v111h513v-112h-100v-464h-142v464h-141v-464h-142v293q0 70 -47.5 125.5t-129.5 55.5q-80 0 -126 -54t-51 -146q15 30 51.5 51t80.5 21
q71 0 117 -48t46 -126q0 -80 -53.5 -131t-142.5 -51zM1667 171q0 -31 19 -49t48 -18q31 0 49 17.5t18 49.5t-18 49.5t-49 17.5q-29 0 -48 -18t-19 -49z" />
    <glyph glyph-name="tmVirama" unicode="&#xbcd;" horiz-adv-x="0" 
d="M88 726q0 -37 -25.5 -63t-61.5 -26q-37 0 -62.5 26t-25.5 63q0 35 25.5 60t62.5 25q36 0 61.5 -25t25.5 -60z" />
    <glyph glyph-name="tmOm" unicode="&#xbd0;" horiz-adv-x="1047" 
d="M390 -46h87v164q0 53 32 83t90 30q28 0 49 -7q1 82 42 144h113q-20 -36 -20 -66q0 -24 13 -38t36 -14q48 0 48 57q0 77 -106.5 127t-257.5 50q-131 0 -224.5 -31.5t-120.5 -92.5q35 40 94 40q57 0 96.5 -37.5t39.5 -100.5q0 -68 -48 -108q37 -31 37 -81v-119zM907 -110
q-45 -55 -83.5 -92t-92.5 -73.5t-121 -54.5t-147 -18q-189 0 -303.5 91t-114.5 238q0 109 79 172q-71 50 -71 154q0 129 127.5 204t335.5 75q203 0 340 -83.5t137 -200.5q0 -64 -35 -103.5t-97 -39.5q-41 0 -68.5 19t-35.5 51q-4 -17 -4 -36q0 -104 169 -104h115v-96h-10
q-25 0 -48 -21t-61 -68q-7 -9 -11 -14zM569 116v-162h9q51 0 74.5 24.5t23.5 77.5q0 44 -17.5 72t-55.5 28q-34 0 -34 -40zM463 -247q66 0 120 14.5t96.5 45t70 58t63.5 71.5q39 47 57 59q-59 3 -107 28q-8 -71 -56 -114t-122 -43h-296v198q0 21 -13 33t-31 12
q-38 1 -60 -40t-22 -98q0 -109 82 -166.5t218 -57.5zM183 261q0 -24 16 -38.5t41 -14.5q27 0 43 14.5t16 38.5q0 25 -16 39t-43 14q-25 0 -41 -14t-16 -39zM589 342q0 -26 -18 -44.5t-44 -18.5t-44.5 18.5t-18.5 44.5q0 25 18.5 43t44.5 18t44 -18t18 -43z" />
    <glyph glyph-name="tmAUlengthmark" unicode="&#xbd7;" horiz-adv-x="1062" 
d="M272 -10q-103 0 -167 76t-65 194q0 135 79 230.5t214 95.5q76 0 129 -34t77 -87v111h513v-112h-100v-464h-142v464h-141v-464h-142v293q0 70 -47.5 125.5t-129.5 55.5q-80 0 -126 -54t-51 -146q15 30 51.5 51t80.5 21q71 0 117 -48t46 -126q0 -80 -53.5 -131t-142.5 -51z
M205 171q0 -31 19 -49t48 -18q31 0 49 17.5t18 49.5t-18 49.5t-49 17.5q-29 0 -48 -18t-19 -49z" />
    <glyph glyph-name="tmZero" unicode="&#xbe6;" horiz-adv-x="626" 
d="M581 287q0 -136 -72.5 -216.5t-195.5 -80.5t-195.5 80.5t-72.5 216.5t72.5 217t195.5 81t195.5 -81t72.5 -217zM185 287q0 -85 32.5 -135t95.5 -50t95.5 50t32.5 135t-32.5 135.5t-95.5 50.5t-95.5 -50.5t-32.5 -135.5z" />
    <glyph glyph-name="tmOne" unicode="&#xbe7;" horiz-adv-x="849" 
d="M274 465v-115h130v115h-130zM266 95q138 0 138 143h-142q-87 0 -87 -71q0 -37 25 -54.5t66 -17.5zM588 350q106 0 166 -48t60 -132q0 -88 -48.5 -134t-133.5 -46q-35 0 -70 5v110q14 -2 35 -2q77 0 77 67q0 38 -20 53t-66 15h-44q-2 -118 -69 -187t-210 -69
q-107 0 -168.5 48t-61.5 137q0 120 99 162v247h509v-112h-99v-114h44z" />
    <glyph glyph-name="tmTwo" unicode="&#xbe8;" horiz-adv-x="886" 
d="M238 251q136 0 136 123q0 43 -27.5 72.5t-77.5 29.5q-28 0 -43.5 -12t-15.5 -34q0 -41 56 -41q25 0 49 8v-93q-28 -13 -73 -13q-75 0 -121.5 36.5t-46.5 101.5q0 70 51.5 113.5t138.5 43.5q110 0 174 -61.5t64 -151.5q0 -102 -70 -161t-181 -59h-44q-22 0 -33 -4.5
t-11 -19.5t10.5 -19.5t33.5 -4.5h669v-105h-668q-28 0 -50.5 2t-49.5 9.5t-45 21t-30.5 37.5t-12.5 57q0 124 185 124h33z" />
    <glyph glyph-name="tmThree" unicode="&#xbe9;" horiz-adv-x="918" 
d="M499 464v-152q15 41 51.5 66t83.5 25q71 0 114.5 -42t43.5 -107q0 -95 -80 -142h186v-111l-541 -1v112h188q55 0 85 28t30 74q0 36 -22 56.5t-58 20.5q-42 0 -61.5 -25t-19.5 -59v-15h-142v272h-140v-464h-142v576h534v-112h-110z" />
    <glyph glyph-name="tmFour" unicode="&#xbea;" horiz-adv-x="915" 
d="M728 576h142v-338h-326q-2 -116 -72 -186t-207 -70q-107 0 -168.5 48t-61.5 137q0 120 99 162v247h499v-112h-89v-114h184v226zM274 465v-115h130v115h-130zM266 95q138 0 138 143h-142q-87 0 -87 -71q0 -37 25 -54.5t66 -17.5z" />
    <glyph glyph-name="tmFive" unicode="&#xbeb;" horiz-adv-x="1229" 
d="M872 0h-142v464h-178v-464h-142v576h560v-112h-98v-179q44 89 138 89q80 0 129.5 -65t49.5 -159q0 -193 -142.5 -306t-390.5 -113q-273 0 -439.5 148.5t-166.5 397.5q0 250 168 399.5t451 149.5q174 0 300 -47v-112q-118 47 -300 47q-217 0 -347 -116.5t-130 -320.5
q0 -207 126.5 -320.5t337.5 -113.5q186 0 287 79t101 225q0 48 -23 78.5t-60 30.5q-38 0 -61.5 -25.5t-27.5 -71.5v-159z" />
    <glyph glyph-name="tmSix" unicode="&#xbec;" horiz-adv-x="1285" 
d="M1275 0h-337v92q36 23 59.5 62.5t23.5 87.5q0 44 -25 68t-71 24q-113 0 -113 -176v-158h-140l1 157q0 42 -16.5 61.5t-54.5 19.5h-58q-2 -116 -72 -186t-207 -70q-107 0 -168.5 48t-61.5 137q0 120 99 162v247h509v-112h-99v-114h55q84 0 126 -40q48 136 202 136
q111 0 172 -57.5t59 -138.5q0 -79 -52 -138h169v-112zM274 465v-115h130v115h-130zM266 95q138 0 138 143h-142q-87 0 -87 -71q0 -37 25 -54.5t66 -17.5z" />
    <glyph glyph-name="tmSeven" unicode="&#xbed;" horiz-adv-x="788" 
d="M480 172q0 -81 -54 -131.5t-144 -50.5q-111 0 -176.5 71t-65.5 188q0 159 104 243t288 84h346v-112h-99v-464h-140v464h-104q-235 0 -255 -181q33 63 123 63q73 0 125 -48t52 -126zM204 171q0 -32 20 -49.5t53 -17.5q34 0 54 17.5t20 49.5t-20 49.5t-54 17.5
q-33 0 -53 -17.5t-20 -49.5z" />
    <glyph glyph-name="tmEight" unicode="&#xbee;" horiz-adv-x="1020" 
d="M417 392q0 -41 21 -74h154v8q0 62 -25.5 104t-74.5 42q-36 0 -55.5 -22.5t-19.5 -57.5zM376 126q157 0 199 101l-427 -1q92 -100 228 -100zM945 0h-140v227h-93q-30 -103 -119.5 -155.5t-219.5 -52.5q-115 0 -204.5 47.5t-147.5 118.5l-1 133h284q-23 32 -23 78
q0 85 52.5 137.5t144.5 52.5q121 0 184 -78t63 -182v-8h80v258h140v-576z" />
    <glyph glyph-name="tmNine" unicode="&#xbef;" horiz-adv-x="1354" 
d="M274 465v-115h130v115h-130zM863 104q29 0 45.5 20t16.5 51q0 61 -83 63h-59q-1 -9 -1 -27q0 -49 21.5 -78t59.5 -29zM649 213q0 17 1 25h-106q-2 -116 -72 -186t-207 -70q-107 0 -168.5 48t-61.5 137q0 120 99 162v247h509v-112h-99v-114h135q37 76 112.5 121t179.5 45
q154 0 247 -82.5t91 -219.5q0 -135 -61 -226h-143q31 48 50 109t19 117q0 87 -53 138.5t-152 51.5q-90 0 -139 -54h19q91 0 148 -47t57 -127q0 -81 -52.5 -133.5t-138.5 -52.5q-101 0 -157 62t-57 161zM266 95q138 0 138 143h-142q-87 0 -87 -71q0 -37 25 -54.5t66 -17.5z
" />
    <glyph glyph-name="tmTen" unicode="&#xbf0;" horiz-adv-x="872" 
d="M528 766h156q33 -66 54 -115t45 -145t24 -184q0 -154 -56.5 -243t-173.5 -89q-63 0 -102 32.5t-49 76.5q-11 -45 -50.5 -77t-106.5 -32q-94 0 -144 50.5t-50 143.5v392h143v-401q0 -36 19 -54.5t50 -18.5q32 0 50 19t18 55v400h142v-400q0 -34 19.5 -54t50.5 -20
q95 0 95 220q0 201 -134 444z" />
    <glyph glyph-name="tmOnehundred" unicode="&#xbf1;" horiz-adv-x="953" 
d="M943 576v-112h-99l2 -464h-145v464h-107q-68 0 -68 -64v-400h-142v393q0 38 -21 59.5t-62 21.5t-62.5 -22t-21.5 -59v-393h-142v398q0 86 56.5 137t137.5 51t128 -32.5t58 -76.5q34 99 151 99h337z" />
    <glyph glyph-name="tmOnethousand" unicode="&#xbf2;" horiz-adv-x="1119" 
d="M274 465v-115h130v115h-130zM266 95q138 0 138 147v1h-142q-39 0 -63 -19.5t-24 -56.5t25 -54.5t66 -17.5zM1003 350v-107h-90v-74q81 -7 126 -53.5t45 -125.5q0 -98 -70.5 -160t-192.5 -62q-19 0 -61 2t-59 2q-75 0 -130 -26v91q51 23 130 23q22 0 62 -2t58 -2
q78 0 118 37t40 97q0 85 -66 99q-2 -173 -181 -173q-80 0 -124.5 36.5t-44.5 96.5q0 48 39 84.5t116 36.5h83v73h-257v-1q0 -117 -70.5 -188.5t-208.5 -71.5q-107 0 -168.5 48t-61.5 137q0 120 99 162v247h509v-112h-99v-114h459zM734 1q67 0 67 90h-71q-56 0 -56 -42
q0 -22 17 -35t43 -13z" />
    <glyph glyph-name="tmDay" unicode="&#xbf3;" horiz-adv-x="986" 
d="M996 0h-467v92q55 77 55 182q0 88 -52.5 144t-155.5 56q-94 0 -146 -54t-57 -146q15 30 51.5 51t80.5 21q71 0 117 -48t46 -126q0 -80 -53.5 -131t-142.5 -51q-103 0 -167 76t-65 194q0 137 89 231.5t249 94.5q153 0 248 -88t93 -224q0 -94 -42 -162h319v-112zM205 171
q0 -31 19 -49t48 -18q31 0 49 17.5t18 49.5t-18 49.5t-49 17.5q-29 0 -48 -18t-19 -49z" />
    <glyph glyph-name="tmMonth" unicode="&#xbf4;" horiz-adv-x="1259" 
d="M843 643q22 0 33.5 15t11.5 37q0 63 -97 68q-4 -19 -4 -44q0 -35 15 -55.5t41 -20.5zM693 720q0 19 1 29q-55 -26 -55 -86q0 -49 25 -84q100 -22 156.5 -105.5t56.5 -188.5q0 -138 -78 -212t-219 -74l-505 1v575h142v-464h178v280q0 76 40 126t114 63q-18 39 -18 81
q0 78 55.5 126.5t137.5 60.5q59 108 195 108q73 0 118.5 -31t60.5 -86q13 112 151 112v-100h-14q-48 0 -62 -27t-14 -86v-152h-109v142q0 62 -37.5 101.5t-94.5 39.5q-50 0 -81 -23q73 -13 111.5 -52.5t38.5 -98.5t-38 -95.5t-105 -36.5q-68 0 -109.5 42t-41.5 115zM537 388
v-277h31q87 0 127 42t40 132q0 76 -32 132t-97 56q-69 0 -69 -85z" />
    <glyph glyph-name="tmYear" unicode="&#xbf5;" horiz-adv-x="2495" 
d="M344 260q0 137 89 231.5t249 94.5q153 0 248 -88t93 -224q0 -94 -42 -162h154v464h560v-112h-98v-179q45 89 138 89q80 0 129.5 -65t49.5 -159q0 -116 -70 -205t-195.5 -144t-290.5 -82.5t-364 -27.5q-209 0 -380.5 36t-299.5 107t-198.5 185.5t-70.5 262.5
q0 189 129 325t348 202.5t502 66.5q228 0 415.5 -32t335.5 -97.5t236 -174.5t103 -254l9 -90q11 -108 84 -108q92 0 92 195q0 59 -10.5 134t-31.5 127h140q38 -129 38 -263q0 -61 -12 -114.5t-37.5 -99.5t-71.5 -72.5t-107 -26.5q-97 0 -149 58.5t-62 158.5l-8 76
q-9 82 -43.5 149.5t-86.5 114.5t-126 82.5t-152.5 57t-175.5 35t-186.5 18t-193.5 4.5q-179 0 -328 -28t-264.5 -83.5t-180 -147.5t-64.5 -213q0 -101 40.5 -180.5t112 -133t174 -89t221.5 -51t259 -15.5q169 0 303.5 17t243.5 54.5t168.5 104t59.5 158.5q0 48 -23 78.5
t-60 30.5q-38 0 -61.5 -25.5t-27.5 -71.5v-159h-142v464h-178v-464h-444v92q55 77 55 182q0 88 -52.5 144t-155.5 56q-94 0 -146 -54t-57 -146q15 30 51.5 51t80.5 21q71 0 117 -48t46 -126q0 -80 -53.5 -131t-142.5 -51q-103 0 -167 76t-65 194zM509 171q0 -31 19 -49
t48 -18q31 0 49 17.5t18 49.5t-18 49.5t-49 17.5q-29 0 -48 -18t-19 -49z" />
    <glyph glyph-name="tmDebit" unicode="&#xbf6;" horiz-adv-x="1187" 
d="M1112 -212h-101h-255q-42 -87 -130 -131.5t-214 -44.5q-106 0 -194 38t-142 99l-1 130h566q7 31 7 72v49h-573v576h145v-460h425v460h145v-625q0 -37 -6 -72h183v697h145v-788zM415 -281q124 0 183 68h-391q69 -68 208 -68z" />
    <glyph glyph-name="tmCredit" unicode="&#xbf7;" horiz-adv-x="1625" 
d="M1615 0h-366v92h-1q47 60 47 144q0 75 -53.5 122.5t-134.5 47.5q-89 0 -141 -57q8 1 25 1q89 0 146 -47t57 -131q0 -81 -53 -132t-142 -51q-80 0 -136 48.5t-72 125.5q-76 -64 -112 -160v-3h-140v464h-104q-235 0 -255 -181q33 63 123 63q73 0 125 -48t52 -126
q0 -81 -54 -131.5t-144 -50.5q-111 0 -176.5 71t-65.5 188q0 159 104 243t288 84h346v-112h-99v-260q48 58 120 96q28 94 110 156t200 62q148 0 234 -82t84 -200q0 -69 -29 -124h217v-112zM999 103q30 0 48 19t18 49q0 32 -24 49t-65 18q-30 0 -57 -7v-12q0 -51 21 -83.5
t59 -32.5zM204 171q0 -32 20 -49.5t53 -17.5q34 0 54 17.5t20 49.5t-20 49.5t-54 17.5q-33 0 -53 -17.5t-20 -49.5z" />
    <glyph glyph-name="tmAsabove" unicode="&#xbf8;" horiz-adv-x="1920" 
d="M1910 0h-100v-191h-135v191h-546v92h-1q46 59 46 139q0 105 -105 141q4 -33 4 -79q0 -53 -13 -105t-39 -97t-71 -73t-102 -28q-96 0 -154 62.5t-59 164.5q0 107 74 184.5t200 93.5q-86 215 -350 215q-168 0 -264.5 -99t-96.5 -251q0 -49 7 -81q15 43 57.5 68t93.5 25
q88 0 140.5 -55t52.5 -138q0 -82 -55.5 -137t-147.5 -55q-95 0 -162.5 55t-97.5 137.5t-31 180.5q0 201 134 331.5t370 130.5q184 0 311 -84t176 -244q121 -19 191.5 -90.5t68.5 -172.5q0 -65 -27 -119h194q-86 52 -86 161q0 99 63.5 164t171.5 65q89 0 138.5 -47t49.5 -126
v-217h100v-112zM263 178q0 -34 21.5 -55.5t56.5 -21.5t57 21.5t22 55.5t-22 55.5t-57 21.5t-56.5 -21.5t-21.5 -55.5zM846 111q46 0 71.5 46.5t25.5 135.5q0 49 -6 92q-77 -7 -123 -51t-46 -119q0 -49 21 -76.5t57 -27.5zM1527 272q0 -73 40 -116.5t108 -43.5v223
q0 57 -54 57q-44 0 -69 -34.5t-25 -85.5z" />
    <glyph glyph-name="tmRupee" unicode="&#xbf9;" horiz-adv-x="1341" 
d="M872 0h-142v464h-178v-464h-142v576h550v-112h-88v-179q44 89 138 89q80 0 129.5 -65t49.5 -159q0 -187 -145.5 -302t-391.5 -115q-270 0 -435 146.5t-165 391.5q0 246 164.5 390.5t441.5 144.5q71 0 149 -10q24 57 79 88t127 31q111 0 175 -55.5t64 -154.5
q0 -74 -46 -130h125v-112h-270v101q61 63 61 138q0 47 -29.5 73t-80.5 26q-55 0 -85 -36.5t-33 -92.5q-98 22 -236 22q-211 0 -338.5 -112t-127.5 -311q0 -196 128.5 -311t331.5 -115q179 0 285.5 82t106.5 220q0 48 -23 78.5t-60 30.5q-38 0 -61.5 -25.5t-27.5 -71.5v-159z
" />
    <glyph glyph-name="tmNumber" unicode="&#xbfa;" horiz-adv-x="862" 
d="M499 464v-191q44 91 139 91q86 0 137.5 -68.5t51.5 -164.5q0 -156 -101.5 -247.5t-295.5 -91.5q-30 0 -95.5 3.5t-91.5 3.5q-123 0 -219 -53v119q87 46 219 46q35 0 97 -3.5t90 -3.5q252 0 252 227q0 53 -23.5 84t-69.5 31q-42 0 -66 -31t-24 -88v-127h-142v464h-140
v-464h-142v576h525v-112h-101z" />
    <glyph glyph-name="zerowidthnonjoiner" unicode="&#x200c;" horiz-adv-x="0" 
d="M24 -230h-47v1041h47v-1041z" />
    <glyph glyph-name="zerowidthjoiner" unicode="&#x200d;" horiz-adv-x="0" 
d="M24 -230h-47v865l-69 -73l-33 33l93 93l-95 95l33 33l95 -95l96 95l32 -32l-96 -96l96 -95l-33 -33l-72 75v-865z" />
    <glyph glyph-name="endash" unicode="&#x2013;" horiz-adv-x="555" 
d="M510 215h-465v107h465v-107z" />
    <glyph glyph-name="emdash" unicode="&#x2014;" horiz-adv-x="836" 
d="M791 218h-746v107h746v-107z" />
    <glyph glyph-name="quoteleft" unicode="&#x2018;" horiz-adv-x="267" 
d="M188 433h-161l136 261h126z" />
    <glyph glyph-name="quoteright" unicode="&#x2019;" horiz-adv-x="267" 
d="M154 433h-126l101 261h161z" />
    <glyph glyph-name="quotesinglbase" unicode="&#x201a;" horiz-adv-x="267" 
d="M119 -127h-126l101 261h161z" />
    <glyph glyph-name="quotedblleft" unicode="&#x201c;" horiz-adv-x="452" 
d="M185 433h-158l141 261h121zM378 433h-146l121 261h121z" />
    <glyph glyph-name="quotedblright" unicode="&#x201d;" horiz-adv-x="452" 
d="M149 433h-121l96 261h146zM334 433h-121l104 261h158z" />
    <glyph glyph-name="quotedblbase" unicode="&#x201e;" horiz-adv-x="452" 
d="M119 -127h-121l96 261h146zM304 -127h-121l104 261h158z" />
    <glyph glyph-name="dagger" unicode="&#x2020;" horiz-adv-x="559" 
d="M529 405h-185v-405h-130v405h-184v118h184v151h130v-151h185v-118z" />
    <glyph glyph-name="daggerdbl" unicode="&#x2021;" horiz-adv-x="589" 
d="M544 151h-185v-151h-130v151h-184v118h184v136h-184v118h184v151h130v-151h185v-118h-185v-136h185v-118z" />
    <glyph glyph-name="bullet" unicode="&#x2022;" horiz-adv-x="425" 
d="M345 356q0 -56 -38 -94.5t-94 -38.5q-57 0 -95 38t-38 95t37.5 95t94.5 38q56 0 94.5 -38.5t38.5 -94.5z" />
    <glyph glyph-name="ellipsis" unicode="&#x2026;" horiz-adv-x="938" 
d="M238 81q0 -37 -26 -63t-63 -26t-63 26t-26 63t26 63t63 26t63 -26t26 -63zM558 81q0 -37 -26 -63t-63 -26t-63 26t-26 63t26 63t63 26t63 -26t26 -63zM878 81q0 -37 -26 -63t-63 -26t-63 26t-26 63t26 63t63 26t63 -26t26 -63z" />
    <glyph glyph-name="perthousand" unicode="&#x2030;" horiz-adv-x="1412" 
d="M358 -1h-131l379 708h132zM425 532q0 -79 -55.5 -134.5t-134.5 -55.5t-134.5 55.5t-55.5 134.5t55.5 134.5t134.5 55.5t134.5 -55.5t55.5 -134.5zM162 532q0 -30 21.5 -51.5t51.5 -21.5t51.5 21.5t21.5 51.5t-21.5 51.5t-51.5 21.5t-51.5 -21.5t-21.5 -51.5zM928 182
q0 -79 -55.5 -134.5t-134.5 -55.5t-134.5 55.5t-55.5 134.5t55.5 134.5t134.5 55.5t134.5 -55.5t55.5 -134.5zM665 182q0 -30 21.5 -51.5t51.5 -21.5t51.5 21.5t21.5 51.5t-21.5 51.5t-51.5 21.5t-51.5 -21.5t-21.5 -51.5zM1368 182q0 -79 -55.5 -134.5t-134.5 -55.5
t-134.5 55.5t-55.5 134.5t55.5 134.5t134.5 55.5t134.5 -55.5t55.5 -134.5zM1105 182q0 -30 21.5 -51.5t51.5 -21.5t51.5 21.5t21.5 51.5t-21.5 51.5t-51.5 21.5t-51.5 -21.5t-21.5 -51.5z" />
    <glyph glyph-name="guilsinglleft" unicode="&#x2039;" horiz-adv-x="371" 
d="M184 253l146 -162h-152l-152 162l152 162h152z" />
    <glyph glyph-name="guilsinglright" unicode="&#x203a;" horiz-adv-x="371" 
d="M345 253l-152 -162h-152l146 162l-146 162h152z" />
    <glyph glyph-name="fraction" unicode="&#x2044;" horiz-adv-x="264" 
d="M-68 0h-109l429 711h108z" />
    <glyph glyph-name="Euro" unicode="&#x20ac;" horiz-adv-x="622" 
d="M582 27q-64 -35 -156 -35q-107 0 -184.5 56.5t-108.5 152.5h-93v90h76q-1 10 -1 29q0 24 1 35h-76v90h92q31 104 110 161t179 57q98 0 161 -38v-147q-59 48 -137 48q-98 0 -146 -81h178v-90h-206q-2 -22 -2 -36q0 -19 1 -28h207v-90h-179q45 -75 142 -75q82 0 142 49
v-148z" />
    <glyph glyph-name="indianrupee" unicode="&#x20b9;" horiz-adv-x="559" 
d="M518 395h-108q-11 -71 -56.5 -115t-123.5 -57l191 -223h-184l-177 219v115h87q93 0 113 61h-200v109h194q-30 61 -110 61h-84v109h458v-109h-155q25 -28 37 -61h118v-109z" />
    <glyph glyph-name="uni20BA" unicode="&#x20ba;" horiz-adv-x="588" 
d="M224 0h-99v208l-71 -36v111l71 36v89l-71 -36v111l71 36v136h146v-63l89 45v-111l-89 -45v-89l89 45v-111l-89 -45v-154q77 23 122.5 89t45.5 147h142q0 -68 -23.5 -132t-66.5 -116t-112.5 -83.5t-154.5 -31.5z" />
    <glyph glyph-name="uni20BD" unicode="&#x20bd;" horiz-adv-x="545" 
d="M267 537h-48v-197h39q122 0 122 104q0 93 -113 93zM416 77h-197v-77h-154v77h-77v102h77v59h-77v102h77v315h220q120 0 180.5 -58t60.5 -149q0 -101 -65.5 -155.5t-175.5 -54.5h-66v-59h197v-102z" />
    <glyph glyph-name="uni2113" unicode="&#x2113;" horiz-adv-x="519" 
d="M280 459v-108q81 57 81 146q0 52 -38 52q-43 0 -43 -90zM476 27q-56 -32 -141 -32q-92 0 -144 49t-55 141q-12 -1 -38 -1q-41 0 -68 7v118q32 -8 68 -8q14 0 38 2v162q0 97 40.5 155.5t131.5 58.5q86 0 129.5 -46.5t43.5 -123.5q0 -91 -52.5 -170.5t-148.5 -120.5v-11
q0 -48 24.5 -71.5t67.5 -23.5q55 0 104 33v-118z" />
    <glyph glyph-name="trademark" unicode="&#x2122;" horiz-adv-x="753" 
d="M396 331h-91l29 343h99l36 -93q18 -47 29.5 -81.5t13.5 -45.5l3 -12q9 33 49 139l36 93h99l35 -343h-91l-10 112q-3 32 -3 63.5t2 47.5l1 16q-10 -56 -38 -128l-40 -107h-78l-39 107q-11 29 -20 61t-12 49l-4 18q1 -7 2 -18t3 -46.5t-2 -63.5zM188 331h-94v261h-84v82
h261v-82h-83v-261z" />
    <glyph glyph-name="uni2126" unicode="&#x2126;" horiz-adv-x="790" 
d="M350 0h-305v124h129q-95 79 -95 220q0 156 84.5 248.5t233.5 92.5t233.5 -92t84.5 -249q0 -141 -97 -220h127v-124h-305v124q55 15 82.5 74.5t27.5 145.5q0 95 -39.5 148t-113.5 53t-113.5 -53t-39.5 -148q0 -85 26 -144.5t80 -75.5v-124z" />
    <glyph glyph-name="partialdiff" unicode="&#x2202;" horiz-adv-x="552" 
d="M502 284q0 -140 -62 -217t-172 -77q-112 0 -172.5 64t-60.5 166q0 94 59.5 153.5t144.5 59.5q63 0 109 -31q-57 154 -247 272h201q91 -70 145.5 -180t54.5 -210zM267 120q97 0 102 154q-38 35 -98 35q-38 0 -62.5 -26.5t-24.5 -69.5t21.5 -68t61.5 -25z" />
    <glyph glyph-name="uni2206" unicode="&#x2206;" horiz-adv-x="681" 
d="M35 0v101l210 573h194l207 -573v-101h-611zM245 268l-47 -144h284l-47 144l-95 294q-24 -74 -95 -294z" />
    <glyph glyph-name="product" unicode="&#x220f;" horiz-adv-x="647" 
d="M240 43q0 -229 -182 -229q-36 0 -73 13v133q24 -13 47 -13q30 0 42 22.5t12 72.5v632h496v-854h-155v723h-187v-500z" />
    <glyph glyph-name="summation" unicode="&#x2211;" horiz-adv-x="484" 
d="M191 -76h303v-124h-464v124l146 320l-146 306v124h464v-124h-302l142 -306z" />
    <glyph glyph-name="minus" unicode="&#x2212;" horiz-adv-x="589" 
d="M544 275h-499v129h499v-129z" />
    <glyph glyph-name="uni2215" unicode="&#x2215;" horiz-adv-x="488" 
d="M88 0h-109l429 711h108z" />
    <glyph glyph-name="uni2219" unicode="&#x2219;" horiz-adv-x="316" 
d="M247 337q0 -37 -26 -63t-63 -26t-63 26t-26 63t26 63t63 26t63 -26t26 -63z" />
    <glyph glyph-name="radical" unicode="&#x221a;" horiz-adv-x="825" 
d="M522 -190h-170l-194 538h-131l30 113h226l82 -246q52 -155 74 -265q31 156 65 265l213 692h154z" />
    <glyph glyph-name="infinity" unicode="&#x221e;" horiz-adv-x="830" 
d="M415 259q-25 -28 -42.5 -43.5t-56.5 -33t-85 -17.5q-90 0 -138 44.5t-48 127.5q0 81 52 129.5t138 48.5q98 0 179 -90q81 93 186 93q88 0 136.5 -45.5t48.5 -126.5q0 -80 -52 -129t-137 -49q-103 0 -181 91zM172 339q0 -30 18 -46.5t50 -16.5q52 0 99 68q-59 59 -99 59
q-32 0 -50 -17t-18 -47zM491 339q20 -19 31 -29t30.5 -20t37.5 -10q67 0 67 64q0 27 -17 45t-47 18q-25 0 -47 -13.5t-31 -24t-24 -30.5z" />
    <glyph glyph-name="integral" unicode="&#x222b;" horiz-adv-x="326" 
d="M241 -4q0 -92 -51.5 -143t-142.5 -51q-47 0 -76 10v118q28 -11 52 -11q37 0 55 17t18 60v517q0 92 51.5 143t142.5 51q47 0 76 -10v-118q-28 11 -52 11q-37 0 -55 -17t-18 -60v-517z" />
    <glyph glyph-name="approxequal" unicode="&#x2248;" horiz-adv-x="589" 
d="M207 405q-30 0 -50.5 -13t-43.5 -40l-92 73q71 99 157 99q60 0 119.5 -22.5t81.5 -22.5q30 0 50 13t44 41l92 -74q-69 -99 -158 -99q-52 0 -110.5 22.5t-89.5 22.5zM207 201q-30 0 -50.5 -13t-43.5 -40l-92 73q71 99 157 99q60 0 119.5 -22.5t81.5 -22.5q30 0 50 13
t44 41l92 -74q-69 -99 -158 -99q-52 0 -110.5 22.5t-89.5 22.5z" />
    <glyph glyph-name="notequal" unicode="&#x2260;" horiz-adv-x="589" 
d="M544 166h-294l-37 -80h-75l37 80h-130v116h185l54 116h-239v116h294l37 80h75l-37 -80h130v-116h-185l-54 -116h239v-116z" />
    <glyph glyph-name="lessequal" unicode="&#x2264;" horiz-adv-x="584" 
d="M539 469l-396 -50l396 -50v-126l-499 86v180l499 86v-126zM539 83h-499v116h499v-116z" />
    <glyph glyph-name="greaterequal" unicode="&#x2265;" horiz-adv-x="584" 
d="M544 509v-180l-499 -86v126l396 50l-396 50v126zM544 83h-499v116h499v-116z" />
    <glyph glyph-name="lozenge" unicode="&#x25ca;" horiz-adv-x="604" 
d="M177 337l25 -42q32 -54 57 -99.5t34 -63.5l9 -19q27 61 102 182l26 42l-26 42q-33 54 -58.5 99.5t-34.5 63.5l-9 19q-28 -61 -100 -182zM376 0h-150l-197 337l197 337h150l199 -337z" />
    <glyph glyph-name="dottedcircle" unicode="&#x25cc;" horiz-adv-x="660" 
d="M286 90q0 -20 -12.5 -33t-31.5 -13t-32 13t-13 33q0 18 13 31t32 13t31.5 -13t12.5 -31zM184 165q0 -19 -12.5 -31.5t-31.5 -12.5q-20 0 -32 12.5t-12 31.5t12.5 31.5t31.5 12.5t31.5 -12.5t12.5 -31.5zM132 281q0 -19 -12.5 -31t-31.5 -12t-31.5 12t-12.5 31t12.5 32
t31.5 13t31.5 -12.5t12.5 -32.5zM413 74q0 -19 -12.5 -31.5t-32.5 -12.5t-32 12t-12 32t12 32t32 12t32.5 -12.5t12.5 -31.5zM147 407q0 -19 -13 -31.5t-31 -12.5q-20 0 -33 12.5t-13 31.5t13 31.5t33 12.5q18 0 31 -12.5t13 -31.5zM534 127q0 -19 -13 -31.5t-32 -12.5
t-31.5 12.5t-12.5 31.5t12.5 31.5t31.5 12.5t32 -12.5t13 -31.5zM227 517q0 -20 -12.5 -32.5t-31.5 -12.5t-31.5 12.5t-12.5 32.5q0 19 12.5 31.5t31.5 12.5t31.5 -12.5t12.5 -31.5zM606 225q0 -19 -12.5 -31.5t-30.5 -12.5q-19 0 -32 12.5t-13 31.5t13 32t32 13
q18 0 30.5 -13t12.5 -32zM345 560q0 -20 -12.5 -32t-31.5 -12t-31.5 12t-12.5 32t12.5 32t31.5 12t31.5 -12t12.5 -32zM616 359q0 -19 -12.5 -31.5t-31.5 -12.5q-20 0 -32 12.5t-12 31.5t12 31.5t32 12.5q19 0 31.5 -12.5t12.5 -31.5zM471 545q0 -18 -12.5 -31t-30.5 -13
q-19 0 -32 13t-13 31q0 19 12.5 32t32.5 13q19 0 31 -12.5t12 -32.5zM566 477q0 -19 -12.5 -31.5t-31.5 -12.5t-31.5 12.5t-12.5 31.5t12.5 32t31.5 13t31.5 -12.5t12.5 -32.5z" />
    <glyph glyph-name="fi" unicode="&#xfb01;" horiz-adv-x="575" 
d="M241 0h-145v400h-66v107h66v19q0 92 51.5 143t142.5 51q98 0 189 -42v-118q-95 43 -165 43q-37 0 -55 -17t-18 -60v-19h291v-507h-146v400h-145v-400z" />
    <glyph glyph-name="fl" unicode="&#xfb02;" horiz-adv-x="593" 
d="M336 400h-95v-400h-145v400h-66v107h66v19q0 92 51.5 143t142.5 51q110 0 243 -63v-657h-146v593q-40 10 -68 10q-40 0 -59 -16t-19 -61v-19h95v-107z" />
    <glyph glyph-name="tmKSSA" horiz-adv-x="1920" 
d="M1910 0h-100v-191h-135v191h-541v92h-1q55 77 55 182q0 88 -53 144t-156 56q-144 0 -186 -124h76q89 0 146 -47t57 -131q0 -80 -53.5 -131t-142.5 -51q-99 0 -161 67.5t-68 180.5h-103q-2 -116 -72 -186t-207 -70q-107 0 -168.5 48t-61.5 137q0 120 99 162v247h509v-112
h-99v-114h113q26 105 109 170.5t215 65.5q153 0 248.5 -88t93.5 -224q0 -94 -42 -162h192q-86 52 -86 161q0 99 63.5 164t171.5 65q89 0 138.5 -47t49.5 -126v-217h100v-112zM1527 272q0 -73 40 -116.5t108 -43.5v223q0 57 -54 57q-44 0 -69 -34.5t-25 -85.5zM274 465v-115
h130v115h-130zM876 104q31 0 49 17.5t18 49.5t-24 49t-65 18h-74q3 -62 28.5 -98t67.5 -36zM266 95q138 0 138 143h-142q-87 0 -87 -71q0 -37 25 -54.5t66 -17.5z" />
    <glyph glyph-name="tmKI" horiz-adv-x="1111" 
d="M707 576v-112h-163v-114h44q106 0 166 -48t60 -132q0 -88 -48.5 -134t-133.5 -46q-35 0 -70 5v110q14 -2 35 -2q77 0 77 67q0 38 -20 53t-66 15h-44q-2 -118 -69 -187t-210 -69q-107 0 -168.5 48t-61.5 137q0 120 99 162v247h407q-44 28 -44 82q0 74 67 114.5t162 40.5
q134 0 222 -69t88 -180v-564h-142v564q0 64 -46.5 100.5t-120.5 36.5q-43 0 -68.5 -16.5t-25.5 -49.5q0 -27 19 -43t55 -16zM274 465v-115h130v115h-130zM266 95q138 0 138 143h-142q-87 0 -87 -71q0 -37 25 -54.5t66 -17.5z" />
    <glyph glyph-name="tmNGI" horiz-adv-x="1384" 
d="M1010 576h7v-575h-99l-561 -1v112h188q55 0 85 28t30 74q0 36 -22 56.5t-58 20.5q-42 0 -61.5 -25t-19.5 -59v-15h-142v272h-140v-464h-142v576h534v-112h-110v-152q15 41 51.5 66t83.5 25q71 0 114.5 -42t43.5 -107q0 -95 -80 -142h163v397q-75 39 -75 132
q0 78 63.5 125t165.5 47q130 0 205 -68.5t75 -180.5v-564h-142v564q0 65 -35.5 101t-101.5 36q-43 0 -68.5 -16.5t-25.5 -49.5q0 -27 19 -43t55 -16z" />
    <glyph glyph-name="tmCI" horiz-adv-x="971" 
d="M680 350v-112h-151q-2 -120 -73.5 -188t-209.5 -68q-106 0 -166 49.5t-60 135.5q0 124 107 165v244h275q-44 28 -44 82q0 76 64.5 115.5t167.5 39.5q142 0 225 -66t83 -188v-559h-142v559q0 69 -43.5 105.5t-121.5 36.5q-96 0 -96 -66q0 -27 19 -43t55 -16h60v-112h-100
v-114h151zM267 465v-115h122v115h-122zM247 95q75 0 108.5 41t33.5 102h-142q-87 0 -87 -71q0 -38 25 -55t62 -17z" />
    <glyph glyph-name="tmNYI" horiz-adv-x="1552" 
d="M1110 576v-112h-179v-181q44 91 139 91q80 0 129.5 -65t49.5 -159q0 -190 -160 -299.5t-420 -109.5q-136 0 -248.5 30.5t-195.5 90t-129 153t-46 212.5q0 99 30.5 191.5t78.5 157.5h152q-119 -166 -119 -349q0 -96 37 -169t102.5 -117t150.5 -66t187 -22
q194 0 314.5 76.5t120.5 217.5q0 48 -23 78.5t-60 30.5q-42 0 -66 -31t-24 -88v-137h-140v464h-104q-235 0 -255 -182q37 64 125 64q73 0 124 -47.5t51 -126.5q0 -81 -53.5 -131.5t-144.5 -50.5q-108 0 -172.5 71.5t-64.5 187.5q0 157 102.5 242t284.5 85h260q-42 28 -42 82
q0 75 66 115t161 40q149 0 248.5 -81.5t99.5 -207.5v-524h-142v524q0 80 -58 128.5t-147 48.5q-43 0 -68.5 -16.5t-25.5 -49.5q0 -27 19 -43t55 -16zM456 171q0 -32 20 -49.5t53 -17.5q34 0 54 17.5t20 49.5t-20 49.5t-54 17.5q-33 0 -53 -17.5t-20 -49.5z" />
    <glyph glyph-name="tmTTI" horiz-adv-x="882" 
d="M872 0h-100v-191h-135v191h-562v576h142v-460h212q-80 52 -80 157q0 99 63.5 164t171.5 65q89 0 138.5 -47t49.5 -126v-213h30v-1h70v-115zM489 272q0 -68 35 -109t97 -47h16v219q0 57 -54 57q-44 0 -69 -34.5t-25 -85.5z" />
    <glyph glyph-name="tmNNI" horiz-adv-x="1954" 
d="M266 -10q-100 0 -162.5 65t-63.5 180q0 155 116.5 253t308.5 98q136 0 243 -59q104 59 227 59q124 0 231 -62q104 52 235 52h22q-45 29 -45 84q0 72 61.5 112.5t161.5 40.5q128 0 203 -65t75 -183v-565h-142v565q0 65 -35.5 100.5t-99.5 35.5q-39 0 -63 -17t-24 -49
q0 -27 19 -43t55 -16h64v-112h-80v-464h-142v464h-26q-77 0 -138 -21q95 -105 95 -236q0 -104 -57.5 -160.5t-141.5 -56.5t-142 57t-58 160q0 143 99 242q-61 25 -128 25q-66 0 -125 -24q102 -107 102 -244q0 -103 -56 -159.5t-142 -56.5t-143.5 56t-57.5 160q0 133 96 240
q-65 28 -145 28q-122 0 -200 -51.5t-93 -142.5q41 66 126 66q72 0 119 -48t47 -126q0 -81 -53 -131.5t-143 -50.5zM1163 102q30 0 47.5 28t17.5 78q0 97 -65 170q-66 -69 -66 -170q0 -50 17.5 -78t48.5 -28zM712 102q65 0 65 103q0 99 -68 172q-63 -72 -63 -172
q0 -48 17 -75.5t49 -27.5zM199 171q0 -31 18.5 -49t47.5 -18q31 0 49.5 17.5t18.5 49.5t-18.5 49.5t-49.5 17.5q-29 0 -47.5 -18t-18.5 -49z" />
    <glyph glyph-name="tmTI" horiz-adv-x="1106" 
d="M1031 0h-142v564q0 64 -46.5 100.5t-120.5 36.5q-43 0 -68.5 -16.5t-25.5 -49.5q0 -27 19 -43t55 -16v-112h-139v-116q115 -11 172.5 -82t57.5 -170q0 -142 -92.5 -223t-280.5 -81q-30 0 -95.5 3.5t-91.5 3.5q-115 0 -203 -45v119q79 38 203 38q35 0 97 -3.5t90 -3.5
q123 0 175.5 46.5t52.5 145.5q0 50 -20.5 87.5t-64.5 49.5q-3 -117 -77 -184t-218 -67q-108 0 -171 48t-63 137q0 131 119 169v240h383q-44 28 -44 82q0 74 67 114.5t162 40.5q134 0 222 -69t88 -180v-564zM293 465v-115h130v115h-130zM269 95q154 0 154 143h-162
q-87 0 -87 -71q0 -36 26 -54t69 -18z" />
    <glyph glyph-name="tmNI" horiz-adv-x="1139" 
d="M683 576v-112h-184v-191q44 91 139 91q86 0 137.5 -68.5t51.5 -164.5q0 -156 -101.5 -247.5t-295.5 -91.5q-30 0 -95.5 3.5t-91.5 3.5q-123 0 -219 -53v119q87 46 219 46q35 0 97 -3.5t90 -3.5q252 0 252 227q0 53 -23.5 84t-69.5 31q-42 0 -66 -31t-24 -88v-127h-142
v464h-140v-464h-142v576h442q-44 28 -44 82q0 75 68 115t168 40q151 0 253.5 -77t102.5 -202v-534h-142v534q0 78 -61 122.5t-152 44.5q-47 0 -74 -16.5t-27 -49.5q0 -27 19 -43t55 -16z" />
    <glyph glyph-name="tmPI" horiz-adv-x="1157" 
d="M789 576h1v-576h-715v576h145v-460h425v394q-72 40 -72 131q0 78 63.5 125t165.5 47q130 0 205 -68.5t75 -180.5v-564h-142v564q0 65 -35.5 101t-101.5 36q-43 0 -68.5 -16.5t-25.5 -49.5q0 -59 80 -59z" />
    <glyph glyph-name="tmMI" horiz-adv-x="1202" 
d="M877 285q0 -138 -78 -212t-219 -74l-505 1v575h142v-464h178v280q0 90 54.5 142t154.5 52h7q-11 27 -11 58q0 69 65 119.5t179 50.5q131 0 207 -69t76 -180v-564h-142v564q0 65 -37 101t-103 36q-56 0 -86 -23.5t-30 -65.5q0 -53 32 -77q56 -41 86 -108t30 -142zM537 388
v-277h31q87 0 127 42t40 132q0 76 -32 132t-97 56q-69 0 -69 -85z" />
    <glyph glyph-name="tmYI" horiz-adv-x="1313" 
d="M1238 0h-142v564q0 65 -35.5 101t-101.5 36q-43 0 -68.5 -16.5t-25.5 -49.5q0 -27 19 -43t55 -16h7l-3 -576h-531v75q-49 -85 -150 -85q-80 0 -133.5 50.5t-53.5 137.5v398h142v-393q0 -37 21.5 -59t62.5 -22t62 22t21 60v392h142v-460h275v394q-72 40 -72 131
q0 78 63.5 125t165.5 47q130 0 205 -68.5t75 -180.5v-564z" />
    <glyph glyph-name="tmRI" horiz-adv-x="927" 
d="M75 0v576h308q-44 28 -44 82q0 73 63.5 114t158.5 41q128 0 201 -69.5t73 -187.5v-556h-142v556q0 65 -33 105t-98 40q-38 0 -62 -17t-24 -49q0 -27 19 -43t55 -16h55v-112h-68v-430l-148 -235h-155l161 255v410h-178v-464h-142z" />
    <glyph glyph-name="tmLI" horiz-adv-x="1293" 
d="M709 615q0 92 63 145t166 53q130 0 205 -68.5t75 -180.5v-564h-142v564q0 65 -37 101t-100 36q-43 0 -68.5 -22t-25.5 -64q0 -31 19 -79t41.5 -91.5t41.5 -102t19 -107.5q0 -119 -61.5 -182t-170.5 -63q-100 0 -156.5 59t-56.5 156v116q0 75 -26.5 114t-98.5 39
q-97 0 -158.5 -57t-66.5 -152q11 34 46 57.5t86 23.5q71 0 117 -48t46 -126q0 -81 -53 -131.5t-143 -50.5q-101 0 -163 71.5t-63 188.5q0 144 99 240t255 96q121 0 190 -66.5t68 -197.5v-126q3 -94 79 -94q48 0 70.5 37t22.5 96q0 44 -18.5 95.5t-41 92t-41 93.5t-18.5 99z
M337 171q0 32 -18.5 49.5t-49.5 17.5q-29 0 -47.5 -18t-18.5 -49t18.5 -49t47.5 -18q31 0 49.5 17.5t18.5 49.5z" />
    <glyph glyph-name="tmVI" horiz-adv-x="1342" 
d="M1267 0h-142v564q0 65 -35.5 101t-101.5 36q-43 0 -68.5 -16.5t-25.5 -49.5q0 -27 19 -43t55 -16h7v-576h-446v92q55 77 55 182q0 88 -52.5 144t-155.5 56q-94 0 -146 -54t-57 -146q15 30 51.5 51t80.5 21q71 0 117 -48t46 -126q0 -80 -53.5 -131t-142.5 -51
q-103 0 -167 76t-65 194q0 137 89 231.5t249 94.5q153 0 248 -88t93 -224q0 -94 -42 -162h156v397q-75 39 -75 132q0 78 63.5 125t165.5 47q130 0 205 -68.5t75 -180.5v-564zM205 171q0 -31 19 -49t48 -18q31 0 49 17.5t18 49.5t-18 49.5t-49 17.5q-29 0 -48 -18t-19 -49z
" />
    <glyph glyph-name="tmLLLI" horiz-adv-x="1199" 
d="M114 -229l1 113q94 -59 189 -59q48 0 125 28q61 22 85 27q-56 10 -85 39.5t-29 71.5v8l-325 1v575h142v-464h178v280q0 90 54 142t151 52q-16 27 -16 56q0 81 71 126.5t177 45.5q129 0 210.5 -74t81.5 -185v-554h-142v554q0 66 -40.5 106.5t-109.5 40.5q-112 0 -112 -80
q0 -49 48 -91q52 -42 80.5 -107t28.5 -138q0 -138 -78 -212t-219 -74h-38v-9q0 -40 21.5 -56.5t81.5 -16.5h77v-112h-10q-61 0 -101 -7.5t-96 -33.5q-113 -51 -210 -51q-105 0 -191 58zM537 388v-277h31q87 0 127 42t40 132q0 76 -32 132t-97 56q-69 0 -69 -85z" />
    <glyph glyph-name="tmLLI" horiz-adv-x="1325" 
d="M272 -10q-103 0 -167 76t-65 194q0 135 79 230.5t214 95.5q76 0 129 -34t77 -87v111h264q-44 28 -44 82q0 73 63.5 114t158.5 41q128 0 198.5 -69.5t70.5 -187.5v-556h-142v556q0 66 -31 105.5t-95 39.5q-38 0 -62 -17t-24 -49q0 -27 19 -43t55 -16h52v-112h-70v-464
h-142v464h-141v-464h-142v293q0 70 -47.5 125.5t-129.5 55.5q-80 0 -126 -54t-51 -146q15 30 51.5 51t80.5 21q71 0 117 -48t46 -126q0 -80 -53.5 -131t-142.5 -51zM205 171q0 -31 19 -49t48 -18q31 0 49 17.5t18 49.5t-18 49.5t-49 17.5q-29 0 -48 -18t-19 -49z" />
    <glyph glyph-name="tmRRI" horiz-adv-x="1136" 
d="M1061 0h-142v554q0 68 -36.5 107.5t-111.5 39.5q-49 0 -79 -21.5t-30 -58.5q0 -39 41 -74q106 -80 106 -284q0 -467 -379 -467q-27 0 -87 4.5t-85 4.5q-99 0 -212 -50v119q99 43 210 43q28 0 89 -4.5t85 -4.5q60 0 104 19.5t68.5 50.5t39 80t18.5 95.5t4 109.5
q0 100 -22 155.5t-77 55.5q-31 0 -49.5 -20t-18.5 -54v-400h-142v400q0 36 -18 55t-50 19q-31 0 -50 -18.5t-19 -54.5v-401h-143v392q0 93 50 143.5t144 50.5q67 0 106.5 -32t50.5 -77q8 37 38 67t78 39q-16 27 -16 60q0 81 69.5 125.5t175.5 44.5q135 0 212.5 -73
t77.5 -186v-554z" />
    <glyph glyph-name="tmNNNI" horiz-adv-x="1491" 
d="M712 -10q-88 0 -144.5 56t-56.5 160q0 143 92 243q-62 25 -139 25q-125 0 -207 -59t-89 -159q12 36 46.5 63t84.5 27q71 0 117 -48t46 -126q0 -81 -53 -131.5t-143 -50.5q-100 0 -162.5 65t-63.5 180q0 155 118 253t308 98q135 0 243 -58q94 48 218 48h37q-44 28 -44 82
q0 73 63.5 114t158.5 41q128 0 201 -69.5t73 -187.5v-556h-142v556q0 65 -33 105t-98 40q-38 0 -62 -17t-24 -49q0 -27 19 -43t55 -16h55v-112h-68v-464h-142v464h-45q-67 0 -118 -17q97 -105 97 -241q0 -103 -55.5 -159.5t-142.5 -56.5zM711 102q65 0 65 103q0 101 -70 176
q-61 -68 -61 -176q0 -48 17 -75.5t49 -27.5zM199 171q0 -31 18.5 -49t47.5 -18q31 0 49.5 17.5t18.5 49.5t-18.5 49.5t-49.5 17.5q-29 0 -47.5 -18t-18.5 -49z" />
    <glyph glyph-name="tmSHI" horiz-adv-x="1461" 
d="M1386 0h-142v556q0 65 -33 105t-98 40q-38 0 -62 -17t-24 -49q0 -27 18 -43t54 -16h5v-318q0 -129 -64.5 -198.5t-183.5 -69.5q-96 0 -149 48t-53 128v294h-129v-202q0 -129 -64.5 -198.5t-183.5 -69.5q-96 0 -149 48t-53 128v410h142v-410q0 -64 66 -64q101 0 101 156
v318h550q-44 28 -44 82q0 73 63.5 114t158.5 41q128 0 201 -69.5t73 -187.5v-556zM862 102q101 0 101 156v202h-167v-294q0 -64 66 -64z" />
    <glyph glyph-name="tmJI" horiz-adv-x="1191" 
d="M676 -25q-43 0 -78.5 -20t-62.5 -48.5t-57 -57t-77.5 -48.5t-108.5 -20q-106 0 -171.5 55.5t-65.5 147.5q0 115 88.5 173t245.5 58h94q112 0 173 43t61 131q0 40 -20.5 64t-57.5 24q-39 0 -60 -35.5t-21 -91.5v-57h-139v33q0 67 -39 108.5t-113 41.5q-37 0 -58 -16
t-21 -45q0 -56 75 -56q35 0 72 10v-109q-35 -11 -88 -11q-82 0 -135 41t-53 123q0 78 57 125.5t146 47.5q179 0 215 -153q9 64 47.5 103.5t96.5 47.5q-14 25 -14 59q0 73 61.5 121.5t171.5 48.5q130 0 203 -68.5t73 -180.5v-564h-142v564q0 66 -34 101.5t-99 35.5
q-46 0 -74.5 -20.5t-28.5 -57.5q0 -41 35 -69q84 -53 84 -168q0 -132 -99.5 -207.5t-239.5 -75.5h-101q-220 0 -220 -120q0 -41 27.5 -65.5t71.5 -24.5q33 0 64.5 20t59.5 48.5t60.5 57t82 48.5t108.5 20q87 0 140.5 -42.5t53.5 -115.5q0 -74 -48.5 -114t-127.5 -40
q-53 0 -90 14v106q42 -10 73 -10q70 0 70 47q0 43 -66 43z" />
    <glyph glyph-name="tmSSI" horiz-adv-x="1582" 
d="M1286 0h-80v-191h-135v191h-541v92h-1q55 77 55 182q0 88 -52.5 144t-155.5 56q-94 0 -146 -54t-57 -146q15 30 51.5 51t80.5 21q71 0 117 -48t46 -126q0 -80 -53.5 -131t-142.5 -51q-103 0 -167 76t-65 194q0 137 89 231.5t249 94.5q153 0 248 -88t93 -224
q0 -94 -42 -162h192q-86 52 -86 161q0 98 61.5 162.5t166.5 66.5q-22 41 -22 91q0 98 69.5 159t180.5 61q129 0 198.5 -68t69.5 -181v-564h-142v564q0 137 -125 137q-54 0 -84.5 -31.5t-30.5 -83.5q0 -84 47 -148q34 -43 34 -109v-217h80v-112zM923 272q0 -73 40 -116.5
t108 -43.5v223q0 57 -54 57q-44 0 -69 -34.5t-25 -85.5zM205 171q0 -31 19 -49t48 -18q31 0 49 17.5t18 49.5t-18 49.5t-49 17.5q-29 0 -48 -18t-19 -49z" />
    <glyph glyph-name="tmSI" horiz-adv-x="1569" 
d="M40 260q0 139 83 232.5t231 93.5q79 0 137 -34.5t87 -94.5q16 59 60 94t109 35q86 0 138 -53.5t52 -141.5v-195q3 -94 80 -94q48 0 70.5 37t22.5 96q0 44 -18.5 93t-41 87t-41 92.5t-18.5 107.5q0 92 63 145t166 53q130 0 202 -68.5t72 -180.5v-564h-142v564
q0 65 -34.5 101t-96.5 36q-43 0 -68.5 -22t-25.5 -64q0 -38 19 -87.5t41.5 -91t41.5 -97t19 -104.5q0 -119 -61.5 -182t-171.5 -63q-100 0 -156.5 59t-56.5 156v196q0 35 -19 54t-49 19t-49.5 -18.5t-19.5 -53.5v-402h-142v311q0 70 -43.5 116.5t-125.5 46.5
q-80 0 -128 -55.5t-53 -144.5q15 30 51.5 51t80.5 21q71 0 117 -48t46 -126q0 -80 -53.5 -131t-142.5 -51q-103 0 -167 76t-65 194zM205 171q0 -31 19 -49t48 -18q31 0 49 17.5t18 49.5t-18 49.5t-49 17.5q-29 0 -48 -18t-19 -49z" />
    <glyph glyph-name="tmHI" horiz-adv-x="1896" 
d="M40 260q0 137 89 231.5t249 94.5q153 0 248 -88t93 -224q0 -94 -42 -162h156v280q0 93 50 143.5t144 50.5q67 0 106.5 -32t50.5 -77q8 37 37.5 67t77.5 39q-16 27 -16 60q0 81 69.5 125.5t175.5 44.5q135 0 214 -73t79 -186v-554h-142v554q0 68 -38 107.5t-113 39.5
q-49 0 -79 -21.5t-30 -58.5t37 -71q55 -39 83 -114.5t28 -172.5q0 -103 -22 -186t-70 -150t-133.5 -104t-203.5 -37q-177 0 -425.5 9.5t-423.5 9.5q-159 0 -272 -50v119q99 43 270 43q178 0 427.5 -9.5t423.5 -9.5q83 0 140 27t87.5 78.5t43.5 114t13 145.5q0 100 -22 155.5
t-77 55.5q-31 0 -49.5 -20t-18.5 -54v-400h-142v400q0 36 -18 55t-50 19q-31 0 -50 -18.5t-19 -54.5v-401h-447v92q55 77 55 182q0 88 -52.5 144t-155.5 56q-94 0 -146 -54t-57 -146q15 30 51.5 51t80.5 21q71 0 117 -48t46 -126q0 -80 -53.5 -131t-142.5 -51
q-103 0 -167 76t-65 194zM205 171q0 -31 19 -49t48 -18q31 0 49 17.5t18 49.5t-18 49.5t-49 17.5q-29 0 -48 -18t-19 -49z" />
    <glyph glyph-name="tmKSSI" horiz-adv-x="2185" 
d="M1890 0h-80v-191h-135v191h-541v92h-1q55 77 55 182q0 88 -53 144t-156 56q-144 0 -186 -124h76q89 0 146 -47t57 -131q0 -80 -53.5 -131t-142.5 -51q-99 0 -161 67.5t-68 180.5h-103q-2 -116 -72 -186t-207 -70q-107 0 -168.5 48t-61.5 137q0 120 99 162v247h509v-112
h-99v-114h113q26 105 109 170.5t215 65.5q153 0 248.5 -88t93.5 -224q0 -94 -42 -162h192q-86 52 -86 161q0 99 63 164t168 65q-26 44 -26 94q0 96 72.5 156.5t181.5 60.5q123 0 193.5 -70t70.5 -179v-564h-142v564q0 63 -31.5 100t-92.5 37q-54 0 -85 -32.5t-31 -84.5
q0 -68 44 -141q38 -44 38 -114v-217h80v-112zM1527 272q0 -73 40 -116.5t108 -43.5v223q0 57 -54 57q-44 0 -69 -34.5t-25 -85.5zM274 465v-115h130v115h-130zM876 104q31 0 49 17.5t18 49.5t-24 49t-65 18h-74q3 -62 28.5 -98t67.5 -36zM266 95q138 0 138 143h-142
q-87 0 -87 -71q0 -37 25 -54.5t66 -17.5z" />
    <glyph glyph-name="tmKII" horiz-adv-x="854" 
d="M274 465v-115h130v115h-130zM266 95q138 0 138 143h-142q-87 0 -87 -71q0 -37 25 -54.5t66 -17.5zM588 350q106 0 166 -48t60 -132q0 -88 -48.5 -134t-133.5 -46q-35 0 -70 5v110q14 -2 35 -2q77 0 77 67q0 38 -20 53t-66 15h-44q-2 -118 -69 -187t-210 -69
q-107 0 -168.5 48t-61.5 137q0 120 99 162v247h269q-82 43 -82 131q0 97 77.5 157t197.5 60q89 0 142.5 -43t53.5 -113q0 -60 -40 -97t-108 -37q-67 0 -107.5 40.5t-40.5 96.5q0 14 3 29q-58 -39 -58 -111q0 -55 39 -84t104 -29h59v-112h-99v-114h44zM686 769
q0 26 -23.5 41.5t-66.5 15.5h-11q-1 -5 -1 -15q0 -39 16 -61t44 -22q42 0 42 41z" />
    <glyph glyph-name="tmNGII" horiz-adv-x="1130" 
d="M1042 728q42 0 42 41q0 26 -23.5 41.5t-66.5 15.5h-11q-1 -5 -1 -15q0 -39 16 -61t44 -22zM499 464v-152q15 41 51.5 66t83.5 25q71 0 114.5 -42t43.5 -107q0 -95 -80 -142h163v375q-77 23 -117.5 79.5t-40.5 133.5q0 101 78 162.5t199 61.5q89 0 142.5 -43t53.5 -113
q0 -60 -40 -97t-108 -37q-67 0 -107.5 40.5t-40.5 96.5q0 15 3 29q-58 -35 -58 -103q0 -59 41.5 -90t101.5 -31h35v-575h-99l-561 -1v112h188q55 0 85 28t30 74q0 36 -22 56.5t-58 20.5q-42 0 -61.5 -25t-19.5 -59v-15h-142v272h-140v-464h-142v576h534v-112h-110z" />
    <glyph glyph-name="tmCII" horiz-adv-x="771" 
d="M713 350v-112h-169q-2 -116 -72 -186t-207 -70q-107 0 -168.5 48t-61.5 137q0 120 99 162v247h268q-82 43 -82 131q0 97 77.5 157t197.5 60q89 0 142.5 -43t53.5 -113q0 -60 -40 -97t-108 -37q-67 0 -107.5 40.5t-40.5 96.5q0 14 3 29q-58 -39 -58 -111q0 -55 39 -84
t104 -29h60v-112h-99v-114h169zM274 465v-115h130v115h-130zM266 95q138 0 138 143h-142q-87 0 -87 -71q0 -37 25 -54.5t66 -17.5zM685 769q0 26 -23.5 41.5t-66.5 15.5h-11q-1 -5 -1 -15q0 -39 16 -61t44 -22q42 0 42 41z" />
    <glyph glyph-name="tmNYII" horiz-adv-x="1294" 
d="M1070 374q80 0 129.5 -65t49.5 -159q0 -190 -160 -299.5t-420 -109.5q-136 0 -248.5 30.5t-195.5 90t-129 153t-46 212.5q0 99 30.5 191.5t78.5 157.5h152q-119 -166 -119 -349q0 -96 37 -169t102.5 -117t150.5 -66t187 -22q194 0 314.5 76.5t120.5 217.5q0 48 -23 78.5
t-60 30.5q-42 0 -66 -31t-24 -88v-137h-140v464h-104q-235 0 -255 -182q37 64 125 64q73 0 124 -47.5t51 -126.5q0 -81 -53.5 -131.5t-144.5 -50.5q-108 0 -172.5 71.5t-64.5 187.5q0 157 102.5 242t284.5 85h111q-82 43 -82 131q0 97 77.5 157t197.5 60q89 0 142.5 -43
t53.5 -113q0 -60 -40 -97t-108 -37q-67 0 -107.5 40.5t-40.5 96.5q0 14 3 29q-58 -39 -58 -111q0 -55 39 -84t104 -29h54v-112h-99v-181q44 91 139 91zM456 171q0 -32 20 -49.5t53 -17.5q34 0 54 17.5t20 49.5t-20 49.5t-54 17.5q-33 0 -53 -17.5t-20 -49.5zM1078 769
q0 26 -23.5 41.5t-66.5 15.5h-11q-1 -5 -1 -15q0 -39 16 -61t44 -22q42 0 42 41z" />
    <glyph glyph-name="tmTTII" horiz-adv-x="812" 
d="M673 424q0 54 -85 54q-23 0 -48 -5v-9q0 -38 21.5 -64t58.5 -26q24 0 38.5 14.5t14.5 35.5zM802 0h-727v576h142v-460h199q-107 72 -107 216q0 115 78.5 184.5t199.5 69.5q88 0 143.5 -46.5t55.5 -117.5q0 -63 -42 -107.5t-115 -44.5q-77 0 -121.5 45t-48.5 103
q-28 -39 -28 -96q0 -86 62 -146t160 -60h149v-116z" />
    <glyph glyph-name="tmNNII" horiz-adv-x="1751" 
d="M266 -10q-100 0 -162.5 65t-63.5 180q0 155 116.5 253t308.5 98q136 0 243 -59q104 59 227 59q124 0 231 -62q104 52 235 52h21q-82 43 -82 131q0 97 77.5 157t197.5 60q89 0 142.5 -43t53.5 -113q0 -60 -40 -97t-108 -37q-67 0 -107.5 40.5t-40.5 96.5q0 14 3 29
q-58 -39 -58 -111q0 -55 39 -84t104 -29h70v-112h-100v-464h-142v464h-26q-77 0 -138 -21q95 -105 95 -236q0 -104 -57.5 -160.5t-141.5 -56.5t-142 57t-58 160q0 143 99 242q-61 25 -128 25q-66 0 -125 -24q102 -107 102 -244q0 -103 -56 -159.5t-142 -56.5t-143.5 56
t-57.5 160q0 133 96 240q-65 28 -145 28q-122 0 -200 -51.5t-93 -142.5q41 66 126 66q72 0 119 -48t47 -126q0 -81 -53 -131.5t-143 -50.5zM1163 102q30 0 47.5 28t17.5 78q0 97 -65 170q-66 -69 -66 -170q0 -50 17.5 -78t48.5 -28zM712 102q65 0 65 103q0 99 -68 172
q-63 -72 -63 -172q0 -48 17 -75.5t49 -27.5zM199 171q0 -31 18.5 -49t47.5 -18q31 0 49.5 17.5t18.5 49.5t-18.5 49.5t-49.5 17.5q-29 0 -47.5 -18t-18.5 -49zM1705 769q0 26 -23.5 41.5t-66.5 15.5h-11q-1 -5 -1 -15q0 -39 16 -61t44 -22q42 0 42 41z" />
    <glyph glyph-name="tmTII" horiz-adv-x="857" 
d="M293 465v-115h130v115h-130zM269 95q154 0 154 143h-162q-87 0 -87 -71q0 -36 26 -54t69 -18zM793 96q0 -142 -92.5 -223t-280.5 -81q-30 0 -95.5 3.5t-91.5 3.5q-115 0 -203 -45v119q79 38 203 38q35 0 97 -3.5t90 -3.5q123 0 175.5 46.5t52.5 145.5q0 50 -20.5 87.5
t-64.5 49.5q-3 -117 -77 -184t-218 -67q-108 0 -171 48t-63 137q0 131 119 169v240h280q-82 43 -82 131q0 97 77.5 157t197.5 60q89 0 142.5 -43t53.5 -113q0 -60 -40 -97t-108 -37q-67 0 -107.5 40.5t-40.5 96.5q0 14 3 29q-58 -39 -58 -111q0 -55 39 -84t104 -29h48v-112
h-99v-116q115 -11 172.5 -82t57.5 -170zM716 769q0 26 -23.5 41.5t-66.5 15.5h-11q-1 -5 -1 -15q0 -39 16 -61t44 -22q42 0 42 41z" />
    <glyph glyph-name="tmNII" horiz-adv-x="872" 
d="M499 464v-191q44 91 139 91q86 0 137.5 -68.5t51.5 -164.5q0 -156 -101.5 -247.5t-295.5 -91.5q-30 0 -95.5 3.5t-91.5 3.5q-123 0 -219 -53v119q87 46 219 46q35 0 97 -3.5t90 -3.5q252 0 252 227q0 53 -23.5 84t-69.5 31q-42 0 -66 -31t-24 -88v-127h-142v464h-140
v-464h-142v576h296q-82 43 -82 131q0 97 77.5 157t197.5 60q89 0 142.5 -43t53.5 -113q0 -60 -40 -97t-108 -37q-67 0 -107.5 40.5t-40.5 96.5q0 14 3 29q-58 -39 -58 -111q0 -55 39 -84t104 -29h48v-112h-101zM654 769q0 26 -23.5 41.5t-66.5 15.5h-11q-1 -5 -1 -15
q0 -39 16 -61t44 -22q42 0 42 41z" />
    <glyph glyph-name="tmPII" horiz-adv-x="902" 
d="M856 769q0 26 -23.5 41.5t-66.5 15.5h-11q-1 -5 -1 -15q0 -39 16 -61t44 -22q42 0 42 41zM790 0h-715v576h145v-460h425v372q-76 23 -116 79t-40 133q0 101 78 162.5t199 61.5q89 0 142.5 -43t53.5 -113q0 -60 -40 -97t-108 -37q-67 0 -107.5 40.5t-40.5 96.5q0 15 3 29
q-58 -35 -58 -103q0 -59 41.5 -90t101.5 -31h36v-576z" />
    <glyph glyph-name="tmMII" horiz-adv-x="956" 
d="M878 728q42 0 42 41q0 26 -23.5 41.5t-66.5 15.5h-11q-1 -5 -1 -15q0 -39 16 -61t44 -22zM580 -1l-505 1v575h142v-464h178v280q0 90 54.5 142t154.5 52q-51 51 -51 119q0 100 78 160t199 60q89 0 142.5 -43t53.5 -113q0 -60 -40 -97t-108 -37q-67 0 -107.5 40.5
t-40.5 96.5q0 9 2 27q-57 -39 -57 -111q0 -88 72 -142q62 -39 96 -109.5t34 -150.5q0 -138 -78 -212t-219 -74zM537 388v-277h31q87 0 127 42t40 132q0 76 -32 132t-97 56q-69 0 -69 -85z" />
    <glyph glyph-name="tmYII" horiz-adv-x="1060" 
d="M1014 769q0 26 -23.5 41.5t-66.5 15.5h-11q-1 -5 -1 -15q0 -39 16 -61t44 -22q42 0 42 41zM943 0h-531v75q-49 -85 -150 -85q-80 0 -133.5 50.5t-53.5 137.5v398h142v-393q0 -37 21.5 -59t62.5 -22t62 22t21 60v392h142v-460h275v373q-75 23 -114.5 79t-39.5 132
q0 101 78 162.5t199 61.5q89 0 142.5 -43t53.5 -113q0 -60 -40 -97t-108 -37q-67 0 -107.5 40.5t-40.5 96.5q0 15 3 29q-58 -35 -58 -103q0 -59 41.5 -90t101.5 -31h34z" />
    <glyph glyph-name="tmRII" horiz-adv-x="727" 
d="M75 0v576h323q-82 43 -82 131q0 97 77.5 157t197.5 60q89 0 142.5 -43t53.5 -113q0 -60 -40 -97t-108 -37q-67 0 -107.5 40.5t-40.5 96.5q0 14 3 29q-58 -39 -58 -111q0 -55 39 -84t104 -29h56v-112h-98v-430l-148 -235h-155l161 255v410h-178v-464h-142zM681 769
q0 26 -23.5 41.5t-66.5 15.5h-11q-1 -5 -1 -15q0 -39 16 -61t44 -22q42 0 42 41z" />
    <glyph glyph-name="tmLII" horiz-adv-x="1083" 
d="M205 171q0 -31 19 -49t48 -18q31 0 49 17.5t18 49.5t-18 49.5t-49 17.5q-29 0 -48 -18t-19 -49zM1025 727q42 0 42 41q0 26 -23.5 41.5t-66.5 15.5h-11q-1 -5 -1 -15q0 -39 16 -61t44 -22zM832 235q0 44 -23 104t-50.5 111.5t-50.5 117.5t-23 119q0 112 81 174t206 62
q89 0 145 -43t56 -113q0 -60 -40 -97t-108 -37q-67 0 -107.5 40.5t-40.5 96.5q0 16 3 33q-58 -34 -58 -114q0 -47 37 -130.5t74 -172.5t37 -151q0 -119 -61.5 -182t-170.5 -63q-100 0 -156.5 59t-56.5 156v99q0 170 -154 170q-87 0 -140 -55.5t-58 -144.5q15 30 51.5 51
t80.5 21q71 0 117 -48t46 -126q0 -80 -53.5 -131t-142.5 -51q-103 0 -167 76t-65 194q0 139 89 232.5t244 93.5q133 0 210.5 -73.5t76.5 -207.5v-109q3 -94 79 -94q48 0 70.5 37t22.5 96z" />
    <glyph glyph-name="tmVII" horiz-adv-x="1089" 
d="M1043 769q0 26 -23.5 41.5t-66.5 15.5h-11q-1 -5 -1 -15q0 -39 16 -61t44 -22q42 0 42 41zM40 260q0 137 89 231.5t249 94.5q153 0 248 -88t93 -224q0 -94 -42 -162h156v376q-77 23 -117 79t-40 133q0 101 78 162.5t199 61.5q89 0 142.5 -43t53.5 -113q0 -60 -40 -97
t-108 -37q-67 0 -107.5 40.5t-40.5 96.5q0 15 3 29q-58 -35 -58 -103q0 -59 41.5 -90t101.5 -31h34v-576h-446v92q55 77 55 182q0 88 -52.5 144t-155.5 56q-94 0 -146 -54t-57 -146q15 30 51.5 51t80.5 21q71 0 117 -48t46 -126q0 -80 -53.5 -131t-142.5 -51q-103 0 -167 76
t-65 194zM205 171q0 -31 19 -49t48 -18q31 0 49 17.5t18 49.5t-18 49.5t-49 17.5q-29 0 -48 -18t-19 -49z" />
    <glyph glyph-name="tmLLLII" horiz-adv-x="967" 
d="M878 728q42 0 42 41q0 26 -23.5 41.5t-66.5 15.5h-11q-1 -5 -1 -15q0 -39 16 -61t44 -22zM114 -229l1 113q94 -59 189 -59q48 0 125 28q61 22 85 27q-56 10 -85 39.5t-29 71.5v8l-325 1v575h142v-464h178v280q0 90 54.5 142t154.5 52q-51 51 -51 119q0 100 78 160t199 60
q89 0 142.5 -43t53.5 -113q0 -60 -40 -97t-108 -37q-67 0 -107.5 40.5t-40.5 96.5q0 9 2 27q-57 -39 -57 -111q0 -88 72 -142q62 -39 96 -109.5t34 -150.5q0 -138 -78 -212t-219 -74h-38v-9q0 -40 21.5 -56.5t81.5 -16.5h77v-112h-10q-61 0 -101 -7.5t-96 -33.5
q-113 -51 -210 -51q-105 0 -191 58zM537 388v-277h31q87 0 127 42t40 132q0 76 -32 132t-97 56q-69 0 -69 -85z" />
    <glyph glyph-name="tmLLII" horiz-adv-x="1142" 
d="M272 -10q-103 0 -167 76t-65 194q0 135 79 230.5t214 95.5q76 0 129 -34t77 -87v111h274q-82 43 -82 131q0 97 77.5 157t197.5 60q89 0 142.5 -43t53.5 -113q0 -60 -40 -97t-108 -37q-67 0 -107.5 40.5t-40.5 96.5q0 14 3 29q-58 -39 -58 -111q0 -55 39 -84t104 -29h58
v-112h-100v-464h-142v464h-141v-464h-142v293q0 70 -47.5 125.5t-129.5 55.5q-80 0 -126 -54t-51 -146q15 30 51.5 51t80.5 21q71 0 117 -48t46 -126q0 -80 -53.5 -131t-142.5 -51zM205 171q0 -31 19 -49t48 -18q31 0 49 17.5t18 49.5t-18 49.5t-49 17.5q-29 0 -48 -18
t-19 -49zM1096 769q0 26 -23.5 41.5t-66.5 15.5h-11q-1 -5 -1 -15q0 -39 16 -61t44 -22q42 0 42 41z" />
    <glyph glyph-name="tmRRII" horiz-adv-x="913" 
d="M877 769q0 26 -23.5 41.5t-66.5 15.5h-11q-1 -5 -1 -15q0 -39 16 -61t44 -22q42 0 42 41zM46 -245v119q99 43 210 43q28 0 89 -4.5t85 -4.5q60 0 104 19.5t68.5 50.5t39 80t18.5 95.5t4 109.5q0 100 -22 155.5t-77 55.5q-31 0 -49.5 -20t-18.5 -54v-400h-142v400
q0 36 -18 55t-50 19q-31 0 -50 -18.5t-19 -54.5v-401h-143v392q0 93 50 143.5t144 50.5q67 0 106.5 -32t50.5 -77q9 41 43.5 72.5t91.5 35.5q-51 51 -51 119q0 100 78 160t199 60q89 0 142.5 -43t53.5 -113q0 -60 -40 -97t-108 -37q-67 0 -107.5 40.5t-40.5 96.5q0 9 2 27
q-57 -39 -57 -111q0 -48 21 -81t59 -66q97 -83 97 -277q0 -467 -379 -467q-27 0 -87 4.5t-85 4.5q-99 0 -212 -50z" />
    <glyph glyph-name="tmNNNII" horiz-adv-x="1316" 
d="M712 -10q-88 0 -144.5 56t-56.5 160q0 143 92 243q-62 25 -139 25q-125 0 -207 -59t-89 -159q12 36 46.5 63t84.5 27q71 0 117 -48t46 -126q0 -81 -53 -131.5t-143 -50.5q-100 0 -162.5 65t-63.5 180q0 155 118 253t308 98q135 0 243 -58q94 48 218 48h60q-82 43 -82 131
q0 97 77.5 157t197.5 60q89 0 142.5 -43t53.5 -113q0 -60 -40 -97t-108 -37q-67 0 -107.5 40.5t-40.5 96.5q0 14 3 29q-58 -39 -58 -111q0 -55 39 -84t104 -29h50v-112h-100v-464h-142v464h-45q-67 0 -118 -17q97 -105 97 -241q0 -103 -55.5 -159.5t-142.5 -56.5zM711 102
q65 0 65 103q0 101 -70 176q-61 -68 -61 -176q0 -48 17 -75.5t49 -27.5zM199 171q0 -31 18.5 -49t47.5 -18q31 0 49.5 17.5t18.5 49.5t-18.5 49.5t-49.5 17.5q-29 0 -47.5 -18t-18.5 -49zM1270 769q0 26 -23.5 41.5t-66.5 15.5h-11q-1 -5 -1 -15q0 -39 16 -61t44 -22
q42 0 42 41z" />
    <glyph glyph-name="tmSHII" horiz-adv-x="1249" 
d="M862 102q101 0 101 156v202h-167v-294q0 -64 66 -64zM1104 576v-318q0 -129 -64.5 -198.5t-183.5 -69.5q-96 0 -149 48t-53 128v294h-129v-202q0 -129 -64.5 -198.5t-183.5 -69.5q-96 0 -149 48t-53 128v410h142v-410q0 -64 66 -64q101 0 101 156v318h536q-82 43 -82 131
q0 97 77.5 157t197.5 60q89 0 142.5 -43t53.5 -113q0 -60 -40 -97t-108 -37q-67 0 -107.5 40.5t-40.5 96.5q0 14 3 29q-58 -39 -58 -111q0 -55 39 -84t104 -29h3zM1203 769q0 26 -23.5 41.5t-66.5 15.5h-11q-1 -5 -1 -15q0 -39 16 -61t44 -22q42 0 42 41z" />
    <glyph glyph-name="tmJII" horiz-adv-x="928" 
d="M870 728q42 0 42 41q0 26 -23.5 41.5t-66.5 15.5h-11q-1 -5 -1 -15q0 -39 16 -61t44 -22zM676 -25q-43 0 -78.5 -20t-62.5 -48.5t-57 -57t-77.5 -48.5t-108.5 -20q-106 0 -171.5 55.5t-65.5 147.5q0 115 88.5 173t245.5 58h94q112 0 173 43t61 131q0 40 -20.5 64
t-57.5 24q-39 0 -60 -35.5t-21 -91.5v-57h-139v33q0 67 -39 108.5t-113 41.5q-37 0 -58 -16t-21 -45q0 -56 75 -56q35 0 72 10v-109q-35 -11 -88 -11q-82 0 -135 41t-53 123q0 78 57 125.5t146 47.5q179 0 215 -153q8 58 41.5 96.5t84.5 51.5q-58 51 -58 123q0 100 78 160
t199 60q89 0 142.5 -43t53.5 -113q0 -60 -40 -97t-108 -37q-67 0 -107.5 40.5t-40.5 96.5q0 9 2 27q-57 -39 -57 -111q0 -79 77 -118q55 -23 84 -71t29 -112q0 -132 -99.5 -207.5t-239.5 -75.5h-101q-220 0 -220 -120q0 -41 27.5 -65.5t71.5 -24.5q33 0 64.5 20t59.5 48.5
t60.5 57t82 48.5t108.5 20q87 0 140.5 -42.5t53.5 -115.5q0 -74 -48.5 -114t-127.5 -40q-53 0 -90 14v106q42 -10 73 -10q70 0 70 47q0 43 -66 43z" />
    <glyph glyph-name="tmSSII" horiz-adv-x="1323" 
d="M1297 749q0 26 -23.5 41.5t-66.5 15.5h-11q-1 -5 -1 -15q0 -39 16 -61t44 -22q42 0 42 41zM1306 0h-100v-191h-135v191h-541v92h-1q55 77 55 182q0 88 -52.5 144t-155.5 56q-94 0 -146 -54t-57 -146q15 30 51.5 51t80.5 21q71 0 117 -48t46 -126q0 -80 -53.5 -131
t-142.5 -51q-103 0 -167 76t-65 194q0 137 89 231.5t249 94.5q153 0 248 -88t93 -224q0 -94 -42 -162h192q-86 52 -86 161q0 96 59.5 160t160.5 69q-73 71 -73 172q0 102 77.5 166t199.5 64q89 0 142.5 -43t53.5 -113q0 -60 -40 -97t-108 -37q-67 0 -107.5 40.5t-40.5 96.5
q0 8 2 24q-57 -41 -57 -118q0 -100 108 -205q46 -46 46 -123v-217h100v-112zM923 272q0 -73 40 -116.5t108 -43.5v223q0 57 -54 57q-44 0 -69 -34.5t-25 -85.5zM205 171q0 -31 19 -49t48 -18q31 0 49 17.5t18 49.5t-18 49.5t-49 17.5q-29 0 -48 -18t-19 -49z" />
    <glyph glyph-name="tmSII" horiz-adv-x="1350" 
d="M40 260q0 139 83 232.5t231 93.5q79 0 137 -34.5t87 -94.5q16 59 60 94t109 35q86 0 138 -53.5t52 -141.5v-195q3 -94 79 -94q48 0 70.5 37t22.5 96q0 44 -23 104t-50.5 111.5t-50.5 117.5t-23 119q0 112 81 174t206 62q89 0 145 -43t56 -113q0 -60 -40 -97t-108 -37
q-67 0 -107.5 40.5t-40.5 96.5q0 16 3 33q-58 -34 -58 -114q0 -47 37 -130.5t74 -172.5t37 -151q0 -119 -61.5 -182t-170.5 -63q-100 0 -156.5 59t-56.5 156v196q0 35 -19 54t-49 19t-49.5 -18.5t-19.5 -53.5v-402h-142v311q0 70 -43.5 116.5t-125.5 46.5q-80 0 -128 -55.5
t-53 -144.5q15 30 51.5 51t80.5 21q71 0 117 -48t46 -126q0 -80 -53.5 -131t-142.5 -51q-103 0 -167 76t-65 194zM205 171q0 -31 19 -49t48 -18q31 0 49 17.5t18 49.5t-18 49.5t-49 17.5q-29 0 -48 -18t-19 -49zM1302 727q42 0 42 41q0 26 -23.5 41.5t-66.5 15.5h-11
q-1 -5 -1 -15q0 -39 16 -61t44 -22z" />
    <glyph glyph-name="tmHII" horiz-adv-x="1660" 
d="M1592 728q42 0 42 41q0 26 -23.5 41.5t-66.5 15.5h-11q-1 -5 -1 -15q0 -39 16 -61t44 -22zM40 260q0 137 89 231.5t249 94.5q153 0 248 -88t93 -224q0 -94 -42 -162h156v280q0 93 50 143.5t144 50.5q67 0 106.5 -32t50.5 -77q9 41 43.5 72.5t90.5 35.5q-51 51 -51 119
q0 100 78 160t199 60q89 0 142.5 -43t53.5 -113q0 -60 -40 -97t-108 -37q-67 0 -107.5 40.5t-40.5 96.5q0 9 2 27q-57 -39 -57 -111q0 -27 6.5 -49.5t21.5 -42t25.5 -30t31.5 -29.5q93 -83 93 -273q0 -103 -22 -186t-70 -150t-133.5 -104t-203.5 -37q-177 0 -425.5 9.5
t-423.5 9.5q-159 0 -272 -50v119q99 43 270 43q178 0 427.5 -9.5t423.5 -9.5q83 0 140 27t87.5 78.5t43.5 114t13 145.5q0 100 -22 155.5t-77 55.5q-31 0 -49.5 -20t-18.5 -54v-400h-142v400q0 36 -18 55t-50 19q-31 0 -50 -18.5t-19 -54.5v-401h-447v92q55 77 55 182
q0 88 -52.5 144t-155.5 56q-94 0 -146 -54t-57 -146q15 30 51.5 51t80.5 21q71 0 117 -48t46 -126q0 -80 -53.5 -131t-142.5 -51q-103 0 -167 76t-65 194zM205 171q0 -31 19 -49t48 -18q31 0 49 17.5t18 49.5t-18 49.5t-49 17.5q-29 0 -48 -18t-19 -49z" />
    <glyph glyph-name="tmKSSII" horiz-adv-x="1927" 
d="M1859 708q42 0 42 41q0 26 -23.5 41.5t-66.5 15.5h-11q-1 -5 -1 -15q0 -39 16 -61t44 -22zM1910 0h-100v-191h-135v191h-541v92h-1q55 77 55 182q0 88 -53 144t-156 56q-144 0 -186 -124h76q89 0 146 -47t57 -131q0 -80 -53.5 -131t-142.5 -51q-99 0 -161 67.5t-68 180.5
h-103q-2 -116 -72 -186t-207 -70q-107 0 -168.5 48t-61.5 137q0 120 99 162v247h509v-112h-99v-114h113q26 105 109 170.5t215 65.5q153 0 248.5 -88t93.5 -224q0 -94 -42 -162h192q-86 52 -86 161q0 96 59.5 160t160.5 69q-73 71 -73 172q0 102 77.5 166t199.5 64
q89 0 142.5 -43t53.5 -113q0 -60 -40 -97t-108 -37q-67 0 -107.5 40.5t-40.5 96.5q0 8 2 24q-57 -41 -57 -118q0 -100 108 -205q46 -46 46 -123v-217h100v-112zM1527 272q0 -73 40 -116.5t108 -43.5v223q0 57 -54 57q-44 0 -69 -34.5t-25 -85.5zM274 465v-115h130v115h-130z
M876 104q31 0 49 17.5t18 49.5t-24 49t-65 18h-74q3 -62 28.5 -98t67.5 -36zM266 95q138 0 138 143h-142q-87 0 -87 -71q0 -37 25 -54.5t66 -17.5z" />
    <glyph glyph-name="tmKU" horiz-adv-x="1159" 
d="M620 -246q-253 0 -406.5 128t-153.5 359q0 176 108 335h152q-118 -171 -118 -335q0 -182 116.5 -278.5t301.5 -96.5q162 0 250 63.5t88 173.5q0 109 -85 130q-3 -117 -77 -184t-218 -67q-108 0 -171 48t-63 137q0 131 119 169v240h509v-112h-99v-116q115 -11 172.5 -79
t57.5 -166q0 -159 -127 -254t-356 -95zM603 465v-115h130v115h-130zM579 95q154 0 154 143h-162q-87 0 -87 -71q0 -36 26 -54t69 -18z" />
    <glyph glyph-name="tmNGU" horiz-adv-x="1092" 
d="M1018 -142h-141v143l-520 -1v112h188q55 0 85 28t30 74q0 36 -22 56.5t-58 20.5q-42 0 -61.5 -25t-19.5 -59v-15h-142v272h-140v-464h-142v576h534v-112h-110v-152q15 41 51.5 66t83.5 25q71 0 114.5 -42t43.5 -107q0 -95 -80 -142h163v464h142v-515h1v-203z" />
    <glyph glyph-name="tmCU" horiz-adv-x="863" 
d="M274 465v-115h130v115h-130zM266 95q138 0 138 143h-142q-87 0 -87 -71q0 -37 25 -54.5t66 -17.5zM853 350v-112h-99v-238h-141v238h-69q-2 -116 -72 -186t-207 -70q-107 0 -168.5 48t-61.5 137q0 120 99 162v247h509v-112h-99v-114h309z" />
    <glyph glyph-name="tmNYU" horiz-adv-x="1354" 
d="M204 181q0 -32 20 -49.5t53 -17.5q34 0 54 17.5t20 49.5t-20 49.5t-54 17.5q-33 0 -53 -17.5t-20 -49.5zM480 182q0 -81 -53.5 -131.5t-144.5 -50.5q-108 0 -172.5 71.5t-64.5 187.5q0 156 101.5 236.5t285.5 80.5h346v-112h-99v-181q44 91 139 91q80 0 129.5 -67
t49.5 -167q0 -120 -34 -215h171v651h145v-742h-101h-261q-130 -192 -447 -192q-239 0 -427 153l-1 130h773q37 82 37 212q0 52 -20.5 85.5t-62.5 33.5t-66 -31t-24 -88v-137h-140v464h-104q-236 0 -255 -171q37 63 125 63q73 0 124 -47.5t51 -126.5zM473 -251q185 0 276 85
l-569 -1q138 -84 293 -84z" />
    <glyph glyph-name="tmTTU" horiz-adv-x="1142" 
d="M60 291q0 114 32 210.5t93.5 169.5t159 114t222.5 41q228 0 351 -107.5t123 -296.5h-142q0 139 -86 215.5t-246 76.5q-179 0 -272 -116.5t-93 -306.5q0 -185 93 -300t253 -115q127 0 191.5 72t64.5 183q0 56 -26 90.5t-77 34.5q-42 0 -66 -31t-24 -88v152q42 85 139 85
q86 0 142.5 -70t56.5 -170q0 -159 -103.5 -264.5t-297.5 -105.5q-228 0 -358 146.5t-130 380.5zM469 576h142v-576h-142v576z" />
    <glyph glyph-name="tmNNU" horiz-adv-x="2004" 
d="M199 171q0 -31 18.5 -49t47.5 -18q31 0 49.5 17.5t18.5 49.5t-18.5 49.5t-49.5 17.5q-29 0 -47.5 -18t-18.5 -49zM1929 -166h-101h-315q-197 -216 -731 -216q-218 0 -411.5 41t-333.5 120v146h1375q90 115 90 309q0 66 -16.5 117.5t-60 87t-110.5 35.5q-37 0 -66 -10
q113 -107 113 -251q0 -106 -56 -164.5t-143 -58.5t-143.5 61t-56.5 166q0 140 78 241q-53 16 -107 16q-66 0 -125 -24q102 -107 102 -244q0 -103 -56 -159.5t-142 -56.5t-143.5 56t-57.5 160q0 133 96 240q-65 28 -145 28q-122 0 -200 -51.5t-93 -142.5q41 66 126 66
q72 0 119 -48t47 -126q0 -81 -53 -131.5t-143 -50.5q-100 0 -162.5 65t-63.5 180q0 155 116.5 253t308.5 98q136 0 243 -59q104 59 227 59q108 0 201 -45q78 45 175 45q159 0 247.5 -98.5t88.5 -253.5q0 -182 -69 -309h206v651h145v-742zM1163 102q30 0 47.5 30.5t17.5 81.5
q0 107 -78 180q-53 -71 -53 -176q0 -116 66 -116zM712 102q65 0 65 103q0 99 -68 172q-63 -72 -63 -172q0 -48 17 -75.5t49 -27.5zM782 -275q353 0 528 109l-1129 -1q241 -108 601 -108z" />
    <glyph glyph-name="tmTU" horiz-adv-x="1171" 
d="M293 465v-115h130v115h-130zM269 95q154 0 154 143h-162q-87 0 -87 -71q0 -36 26 -54t69 -18zM393 -232q122 0 196 66l-423 -1q90 -65 227 -65zM1096 -166h-101h-241q-50 -81 -141.5 -127t-219.5 -46q-112 0 -205.5 37.5t-152.5 96.5l-1 130h621q23 58 23 121
q0 147 -115 183q-5 -115 -79 -181t-216 -66q-108 0 -171 48t-63 137q0 131 119 169v240h509v-112h-99v-120q117 -19 183.5 -100.5t66.5 -197.5q0 -62 -17 -121h155v651h145v-742z" />
    <glyph glyph-name="tmNU" horiz-adv-x="1179" 
d="M499 464v-181q44 91 139 91q80 0 133 -71.5t53 -171.5q0 -113 -31 -206h166v651h145v-742h-101h-252q-108 -176 -341 -176q-107 0 -193.5 37.5t-140.5 99.5l-1 130h573q31 83 31 203q0 56 -25 92t-65 36q-42 0 -66 -31t-24 -88v-137h-142v464h-140v-464h-142v576h525
v-112h-101zM413 -235q114 0 180 68h-394q84 -68 214 -68z" />
    <glyph glyph-name="tmPU" horiz-adv-x="865" 
d="M790 -142h-141v142h-574v576h145v-460h425v460h145v-718z" />
    <glyph glyph-name="tmMU" horiz-adv-x="1277" 
d="M520 -164q102 0 161 44.5t66 118.5l-322 1v575h142v-464h178v280q0 90 54.5 142t154.5 52q126 0 199.5 -89.5t73.5 -210.5q0 -138 -78 -212t-219 -74h-45q-7 -124 -101.5 -199.5t-263.5 -75.5q-216 0 -338 129.5t-122 340.5q0 103 32 206.5t85 175.5h152
q-59 -79 -93 -180.5t-34 -201.5q0 -167 84.5 -262.5t233.5 -95.5zM887 388v-277h31q87 0 127 42t40 132q0 76 -32 132t-97 56q-69 0 -69 -85z" />
    <glyph glyph-name="tmYU" horiz-adv-x="1021" 
d="M943 0v-142h-141v142h-390v75q-49 -85 -150 -85q-80 0 -133.5 50.5t-53.5 137.5v398h142v-393q0 -37 21.5 -59t62.5 -22t62 22t21 60v392h142v-460h275v460h145z" />
    <glyph glyph-name="tmRU" horiz-adv-x="1242" 
d="M859 0h-142v464h-178v-464h-142v576h560v-112h-98v-175q42 85 139 85q86 0 142.5 -70t56.5 -170q0 -185 -152.5 -291t-404.5 -106q-276 0 -428 132.5t-152 369.5q0 176 108 335h152q-118 -171 -118 -335q0 -188 115 -289t323 -101q186 0 299 73t113 209q0 56 -26 90.5
t-77 34.5q-42 0 -66 -31t-24 -88v-137z" />
    <glyph glyph-name="tmLU" horiz-adv-x="1320" 
d="M441 -242q157 0 217 75h-481q44 -32 114 -53.5t150 -21.5zM1245 -166h-101h-335q-74 -183 -368 -183q-123 0 -229 42t-166 102l-1 130h649q2 9 2 28v40q-81 13 -126 69.5t-45 142.5v99q0 170 -154 170q-87 0 -140 -55.5t-58 -144.5q15 30 51.5 51t80.5 21q71 0 117 -48
t46 -126q0 -80 -53.5 -131t-142.5 -51q-103 0 -167 76t-65 194q0 139 89 232.5t244 93.5q133 0 210.5 -73.5t76.5 -207.5v-109q3 -94 79 -94q93 0 93 157q0 167 -96 317h146q88 -141 88 -317q0 -96 -36.5 -161t-102.5 -91v-54q0 -19 -1 -28h270v651h145v-742zM205 171
q0 -31 19 -49t48 -18q31 0 49 17.5t18 49.5t-18 49.5t-49 17.5q-29 0 -48 -18t-19 -49z" />
    <glyph glyph-name="tmVU" horiz-adv-x="1050" 
d="M975 -142h-141v142h-305v92q55 77 55 182q0 88 -52.5 144t-155.5 56q-94 0 -146 -54t-57 -146q15 30 51.5 51t80.5 21q71 0 117 -48t46 -126q0 -80 -53.5 -131t-142.5 -51q-103 0 -167 76t-65 194q0 137 89 231.5t249 94.5q153 0 248 -88t93 -224q0 -94 -42 -162h156v464
h142v-718zM205 171q0 -31 19 -49t48 -18q31 0 49 17.5t18 49.5t-18 49.5t-49 17.5q-29 0 -48 -18t-19 -49z" />
    <glyph glyph-name="tmLLLU" horiz-adv-x="1269" 
d="M197 183q0 -178 94.5 -268t263.5 -90q18 0 36 1t31 2.5t30 4t26.5 4.5t26 6t21.5 5.5t22 6t19 5.5q59 17 85 21q-54 11 -82 40t-28 70v8l-325 1v575h142v-464h178v280q0 90 54.5 142t154.5 52q126 0 199.5 -89.5t73.5 -210.5q0 -138 -78 -212t-219 -74h-38v-9
q0 -40 21.5 -56.5t81.5 -16.5h77v-112h-10q-60 0 -102 -6.5t-99 -27.5q-163 -58 -298 -58q-235 0 -367.5 124.5t-132.5 345.5q0 103 32 206.5t85 175.5h152q-59 -79 -93 -180.5t-34 -201.5zM879 388v-277h31q87 0 127 42t40 132q0 76 -32 132t-97 56q-69 0 -69 -85z" />
    <glyph glyph-name="tmLLU" horiz-adv-x="1604" 
d="M1559 150q0 -104 -56.5 -189.5t-154.5 -141.5t-229.5 -86.5t-282.5 -30.5q-129 0 -242 18t-212 58t-170 99.5t-111.5 147.5t-40.5 198q0 99 31 193.5t78 159.5h152q-119 -166 -119 -353q0 -91 35 -162.5t94 -117t142 -75.5t172 -42t191 -12q159 0 287.5 36t209.5 113
t81 184q0 48 -23 78.5t-60 30.5q-38 0 -61.5 -25.5t-27.5 -71.5v-159h-142v464h-141v-464h-142v293q0 70 -47.5 125.5t-129.5 55.5q-80 0 -126 -54t-51 -146q15 30 51.5 51t80.5 21q71 0 117 -48t46 -126q0 -80 -53.5 -131t-142.5 -51q-103 0 -167 76t-65 194
q0 135 79 230.5t214 95.5q76 0 129 -34t77 -87v111h513v-112h-100v-179q44 89 138 89q80 0 129.5 -65t49.5 -159zM495 171q0 -31 19 -49t48 -18q31 0 49 17.5t18 49.5t-18 49.5t-49 17.5q-29 0 -48 -18t-19 -49z" />
    <glyph glyph-name="tmRRU" horiz-adv-x="1160" 
d="M401 -235q110 0 173 68h-367q69 -68 194 -68zM1085 -166h-101h-252q-100 -176 -334 -176q-96 0 -182.5 38.5t-139.5 98.5l-1 130h553q38 101 38 292q0 59 -3.5 100.5t-14 79.5t-31.5 57.5t-52 19.5t-49.5 -20t-18.5 -54v-400h-142v400q0 36 -18 55t-50 19
q-31 0 -50 -18.5t-19 -54.5v-401h-143v392q0 93 50 143.5t144 50.5q67 0 106.5 -32t50.5 -77q10 44 49 76.5t102 32.5q65 0 112 -31t72 -85.5t36.5 -117.5t11.5 -138q0 -173 -37 -289h168v651h145v-742z" />
    <glyph glyph-name="tmNNNU" horiz-adv-x="1553" 
d="M199 171q0 -31 18.5 -49t47.5 -18q31 0 49.5 17.5t18.5 49.5t-18.5 49.5t-49.5 17.5q-29 0 -47.5 -18t-18.5 -49zM512 217q0 139 75 238q-57 19 -123 19q-125 0 -207 -59t-89 -159q12 36 46.5 63t84.5 27q71 0 117 -48t46 -126q0 -81 -53 -131.5t-143 -50.5
q-100 0 -162.5 65t-63.5 180q0 155 118 253t308 98q117 0 217 -45q79 45 175 45q160 0 249 -102t89 -271q0 -167 -58 -288h195v651h145v-742h-101h-296q-158 -192 -510 -192q-151 0 -278.5 31.5t-252.5 105.5v146h953q58 103 58 288q0 117 -45 189t-144 72q-37 0 -66 -10
q115 -107 115 -251q0 -106 -56 -164.5t-143 -58.5t-143.5 61t-56.5 166zM712 102q30 0 47.5 30.5t17.5 81.5q0 103 -81 178q-50 -71 -50 -174q0 -116 66 -116zM571 -251q230 0 342 85l-742 -1q168 -84 400 -84z" />
    <glyph glyph-name="tmSHU" horiz-adv-x="1631" 
d="M862 102q101 0 101 156v202h-167v-294q0 -64 66 -64zM1199 391q0 42 19 73h-114v-206q0 -129 -64.5 -198.5t-183.5 -69.5q-96 0 -149 48t-53 128v294h-129v-202q0 -129 -64.5 -198.5t-183.5 -69.5q-96 0 -149 48t-53 128v410h142v-410q0 -64 66 -64q101 0 101 156v318
h1007q89 0 148.5 -48t59.5 -131q0 -80 -57 -130.5t-147 -50.5q-87 0 -141 46t-55 129zM1331 398q0 -31 19 -49.5t51 -18.5t51 18.5t19 49.5t-19 49.5t-51 18.5t-51 -18.5t-19 -49.5z" />
    <glyph glyph-name="tmJU" horiz-adv-x="1377" 
d="M676 -25q-43 0 -78.5 -20t-62.5 -48.5t-57 -57t-77.5 -48.5t-108.5 -20q-106 0 -171.5 55.5t-65.5 147.5q0 115 88.5 173t245.5 58h94q112 0 173 43t61 131q0 40 -20.5 64t-57.5 24q-39 0 -60 -35.5t-21 -91.5v-57h-139v33q0 67 -39 108.5t-113 41.5q-37 0 -58 -16
t-21 -45q0 -56 75 -56q35 0 72 10v-109q-35 -11 -88 -11q-82 0 -135 41t-53 123q0 78 57 125.5t146 47.5q179 0 215 -153q10 71 57 112t116 41q43 0 74 -10h413q89 0 148.5 -48t59.5 -131q0 -80 -57 -130.5t-147 -50.5q-87 0 -141 46t-55 129q0 42 19 73h-120q13 -35 13 -78
q0 -132 -99.5 -207.5t-239.5 -75.5h-101q-220 0 -220 -120q0 -41 27.5 -65.5t71.5 -24.5q33 0 64.5 20t59.5 48.5t60.5 57t82 48.5t108.5 20q87 0 140.5 -42.5t53.5 -115.5q0 -74 -48.5 -114t-127.5 -40q-53 0 -90 14v106q42 -10 73 -10q70 0 70 47q0 43 -66 43zM1077 398
q0 -31 19 -49.5t51 -18.5t51 18.5t19 49.5t-19 49.5t-51 18.5t-51 -18.5t-19 -49.5z" />
    <glyph glyph-name="tmSSU" horiz-adv-x="1943" 
d="M1306 0h-100v-191h-135v191h-541v92h-1q55 77 55 182q0 88 -52.5 144t-155.5 56q-94 0 -146 -54t-57 -146q15 30 51.5 51t80.5 21q71 0 117 -48t46 -126q0 -80 -53.5 -131t-142.5 -51q-103 0 -167 76t-65 194q0 137 89 231.5t249 94.5q153 0 248 -88t93 -224
q0 -94 -42 -162h192q-86 52 -86 161q0 99 63.5 164t171.5 65q89 0 138.5 -47t49.5 -126v-217h100v-112zM923 272q0 -73 40 -116.5t108 -43.5v223q0 57 -54 57q-44 0 -69 -34.5t-25 -85.5zM205 171q0 -31 19 -49t48 -18q31 0 49 17.5t18 49.5t-18 49.5t-49 17.5
q-29 0 -48 -18t-19 -49zM1511 391q0 42 19 73h-246v112h419q89 0 148.5 -48t59.5 -131q0 -80 -57 -130.5t-147 -50.5q-87 0 -141 46t-55 129zM1643 398q0 -31 19 -49.5t51 -18.5t51 18.5t19 49.5t-19 49.5t-51 18.5t-51 -18.5t-19 -49.5z" />
    <glyph glyph-name="tmSU" horiz-adv-x="1754" 
d="M747 586q86 0 138 -53.5t52 -141.5v-195q3 -94 79 -94q93 0 93 164q0 100 -39 197v113h444q89 0 148.5 -48t59.5 -131q0 -80 -57 -130.5t-147 -50.5q-87 0 -141 46t-55 129q0 42 19 73h-129q35 -100 35 -198q0 -128 -61.5 -202t-170.5 -74q-100 0 -156.5 59t-56.5 156
v196q0 35 -19 54t-49 19t-49.5 -18.5t-19.5 -53.5v-402h-142v311q0 70 -43.5 116.5t-125.5 46.5q-80 0 -128 -55.5t-53 -144.5q15 30 51.5 51t80.5 21q71 0 117 -48t46 -126q0 -80 -53.5 -131t-142.5 -51q-103 0 -167 76t-65 194q0 139 83 232.5t231 93.5q79 0 137 -34.5
t87 -94.5q16 59 60 94t109 35zM205 171q0 -31 19 -49t48 -18q31 0 49 17.5t18 49.5t-18 49.5t-49 17.5q-29 0 -48 -18t-19 -49zM1454 398q0 -31 19 -49.5t51 -18.5t51 18.5t19 49.5t-19 49.5t-51 18.5t-51 -18.5t-19 -49.5z" />
    <glyph glyph-name="tmHU" horiz-adv-x="2064" 
d="M40 260q0 137 89 231.5t249 94.5q153 0 248 -88t93 -224q0 -94 -42 -162h156v280q0 93 50 143.5t144 50.5q67 0 106.5 -32t50.5 -77q10 44 49 76.5t102 32.5q35 0 70 -10h419q89 0 148.5 -48t59.5 -131q0 -80 -57 -130.5t-147 -50.5q-87 0 -141 46t-55 129q0 42 19 73
h-124q40 -81 40 -201q0 -103 -22 -186t-70 -150t-133.5 -104t-203.5 -37q-177 0 -425.5 9.5t-423.5 9.5q-159 0 -272 -50v119q99 43 270 43q178 0 427.5 -9.5t423.5 -9.5q83 0 140 27t87.5 78.5t43.5 114t13 145.5q0 100 -22 155.5t-77 55.5q-31 0 -49.5 -20t-18.5 -54v-400
h-142v400q0 36 -18 55t-50 19q-31 0 -50 -18.5t-19 -54.5v-401h-447v92q55 77 55 182q0 88 -52.5 144t-155.5 56q-94 0 -146 -54t-57 -146q15 30 51.5 51t80.5 21q71 0 117 -48t46 -126q0 -80 -53.5 -131t-142.5 -51q-103 0 -167 76t-65 194zM205 171q0 -31 19 -49t48 -18
q31 0 49 17.5t18 49.5t-18 49.5t-49 17.5q-29 0 -48 -18t-19 -49zM1764 398q0 -31 19 -49.5t51 -18.5t51 18.5t19 49.5t-19 49.5t-51 18.5t-51 -18.5t-19 -49.5z" />
    <glyph glyph-name="tmKSSU" horiz-adv-x="2551" 
d="M1910 0h-100v-191h-135v191h-541v92h-1q55 77 55 182q0 88 -53 144t-156 56q-144 0 -186 -124h76q89 0 146 -47t57 -131q0 -80 -53.5 -131t-142.5 -51q-99 0 -161 67.5t-68 180.5h-103q-2 -116 -72 -186t-207 -70q-107 0 -168.5 48t-61.5 137q0 120 99 162v247h509v-112
h-99v-114h113q26 105 109 170.5t215 65.5q153 0 248.5 -88t93.5 -224q0 -94 -42 -162h192q-86 52 -86 161q0 99 63.5 164t171.5 65q89 0 138.5 -47t49.5 -126v-217h100v-112zM1527 272q0 -73 40 -116.5t108 -43.5v223q0 57 -54 57q-44 0 -69 -34.5t-25 -85.5zM274 465v-115
h130v115h-130zM876 104q31 0 49 17.5t18 49.5t-24 49t-65 18h-74q3 -62 28.5 -98t67.5 -36zM266 95q138 0 138 143h-142q-87 0 -87 -71q0 -37 25 -54.5t66 -17.5zM2119 391q0 42 19 73h-246v112h419q89 0 148.5 -48t59.5 -131q0 -80 -57 -130.5t-147 -50.5q-87 0 -141 46
t-55 129zM2251 398q0 -31 19 -49.5t51 -18.5t51 18.5t19 49.5t-19 49.5t-51 18.5t-51 -18.5t-19 -49.5z" />
    <glyph glyph-name="tmKUU" horiz-adv-x="1285" 
d="M1275 0h-337v92q36 23 59.5 62.5t23.5 87.5q0 44 -25 68t-71 24q-113 0 -113 -176v-158h-140l1 157q0 42 -16.5 61.5t-54.5 19.5h-58q-2 -116 -72 -186t-207 -70q-107 0 -168.5 48t-61.5 137q0 120 99 162v247h509v-112h-99v-114h55q84 0 126 -40q48 136 202 136
q111 0 172 -57.5t59 -138.5q0 -79 -52 -138h169v-112zM274 465v-115h130v115h-130zM266 95q138 0 138 143h-142q-87 0 -87 -71q0 -37 25 -54.5t66 -17.5z" />
    <glyph glyph-name="tmNGUU" horiz-adv-x="1380" 
d="M299 -220v117q248 -70 485 -70q406 0 406 275q0 52 -21 88t-62 36q-42 0 -66 -31t-24 -88v-199h-141v93l-519 -1v112h188q55 0 85 28t30 74q0 36 -22 56.5t-58 20.5q-42 0 -61.5 -25t-19.5 -59v-15h-142v272h-140v-464h-142v576h534v-112h-110v-152q15 41 51.5 66
t83.5 25q71 0 114.5 -42t43.5 -107q0 -95 -80 -142h163v464h142v-323q44 91 139 91q84 0 131.5 -70.5t47.5 -168.5q0 -183 -142.5 -287.5t-408.5 -104.5q-256 0 -485 67z" />
    <glyph glyph-name="tmCUU" horiz-adv-x="1414" 
d="M1208 360v-112h-147v-165q44 91 135 91q80 0 126.5 -59.5t46.5 -152.5q0 -165 -161 -262.5t-421 -97.5q-149 0 -279.5 37t-231 107.5t-158.5 182.5t-58 252q0 200 127 396h152q-137 -212 -137 -396q0 -117 49 -208.5t132 -146.5t186 -83.5t218 -28.5q127 0 224.5 27.5
t155 83.5t57.5 134q0 45 -20 71t-57 26q-42 0 -64 -31t-22 -88v-37h-140v348h-72q-2 -116 -72 -186t-207 -70q-107 0 -168.5 48t-61.5 137q0 120 99 162v237h509v-112h-99v-104h359zM579 465v-105h130v105h-130zM571 105q138 0 138 143h-142q-87 0 -87 -71q0 -37 25 -54.5
t66 -17.5z" />
    <glyph glyph-name="tmNYUU" horiz-adv-x="1724" 
d="M256 171q0 -32 20 -49.5t53 -17.5q34 0 54 17.5t20 49.5t-20 49.5t-54 17.5q-33 0 -53 -17.5t-20 -49.5zM532 172q0 -81 -53.5 -131.5t-144.5 -50.5q-108 0 -172.5 71.5t-64.5 187.5q0 157 102.5 242t284.5 85h346v-112h-99v-181q44 91 139 91q80 0 129.5 -67t49.5 -167
q0 -120 -34 -215h171v651h528v-112h-100v-464h-142v464h-141v-630h-101h-261q-130 -192 -447 -192q-239 0 -427 153l-1 130h773q37 82 37 212q0 52 -20.5 85.5t-62.5 33.5t-66 -31t-24 -88v-137h-140v464h-104q-235 0 -255 -182q37 64 125 64q73 0 124 -47.5t51 -126.5z
M525 -251q185 0 276 85l-569 -1q138 -84 293 -84z" />
    <glyph glyph-name="tmTTUU" horiz-adv-x="1036" 
d="M581 0h-142v576h142v-325q42 85 139 85q86 0 142.5 -70t56.5 -170q0 -154 -102.5 -252t-290.5 -98q-115 0 -205 42t-146.5 115.5t-85.5 170t-29 208.5q0 116 30.5 214t90 172t155.5 116t221 42q119 0 218 -32t160 -95t61 -145q0 -68 -44 -114t-122 -46q-79 0 -123 44
t-44 117q0 77 62 136q-78 23 -168 23t-159 -32.5t-111.5 -91t-63.5 -136t-21 -172.5q0 -185 83 -304.5t241 -119.5q121 0 184.5 65t63.5 170q0 56 -26 90.5t-77 34.5q-42 0 -66 -31t-24 -88v-99zM832 502q24 0 38 14.5t14 38.5q0 54 -65 95q-41 -46 -41 -93q0 -25 14.5 -40
t39.5 -15z" />
    <glyph glyph-name="tmNNUU" horiz-adv-x="2322" 
d="M199 171q0 -31 18.5 -49t47.5 -18q31 0 49.5 17.5t18.5 49.5t-18.5 49.5t-49.5 17.5q-29 0 -47.5 -18t-18.5 -49zM1929 -166h-101h-315q-197 -216 -731 -216q-217 0 -409.5 41t-332.5 120v146h1372q90 115 90 309q0 66 -16.5 117.5t-60 87t-110.5 35.5q-37 0 -66 -10
q113 -107 113 -251q0 -106 -56 -164.5t-143 -58.5t-143.5 61t-56.5 166q0 140 78 241q-53 16 -107 16q-66 0 -125 -24q102 -107 102 -244q0 -103 -56 -159.5t-142 -56.5t-143.5 56t-57.5 160q0 133 96 240q-65 28 -145 28q-122 0 -200 -51.5t-93 -142.5q41 66 126 66
q72 0 119 -48t47 -126q0 -81 -53 -131.5t-143 -50.5q-100 0 -162.5 65t-63.5 180q0 155 116.5 253t308.5 98q136 0 243 -59q104 59 227 59q108 0 201 -45q78 45 175 45q159 0 247.5 -98.5t88.5 -253.5q0 -182 -69 -309h206v651h528v-112h-100v-464h-142v464h-141v-630z
M1163 102q30 0 47.5 30.5t17.5 81.5q0 107 -78 180q-53 -71 -53 -176q0 -116 66 -116zM712 102q65 0 65 103q0 99 -68 172q-63 -72 -63 -172q0 -48 17 -75.5t49 -27.5zM782 -275q353 0 528 109l-1129 -1q241 -108 601 -108z" />
    <glyph glyph-name="tmTUU" horiz-adv-x="1489" 
d="M293 465v-115h130v115h-130zM269 95q154 0 154 143h-162q-87 0 -87 -71q0 -36 26 -54t69 -18zM393 -232q122 0 196 66l-423 -1q90 -65 227 -65zM1096 -166h-101h-241q-50 -81 -141.5 -127t-219.5 -46q-112 0 -205.5 37.5t-152.5 96.5l-1 130h621q23 58 23 121
q0 147 -115 183q-5 -115 -79 -181t-216 -66q-108 0 -171 48t-63 137q0 131 119 169v240h509v-112h-99v-120q117 -19 183.5 -100.5t66.5 -197.5q0 -62 -17 -121h155v651h528v-112h-100v-464h-142v464h-141v-630z" />
    <glyph glyph-name="tmNUU" horiz-adv-x="1497" 
d="M499 464v-181q44 91 139 91q80 0 133 -71.5t53 -171.5q0 -113 -31 -206h166v651h528v-112h-100v-464h-142v464h-141v-630h-101h-252q-108 -176 -341 -176q-107 0 -193.5 37.5t-140.5 99.5l-1 130h573q31 83 31 203q0 56 -25 92t-65 36q-42 0 -66 -31t-24 -88v-137h-142
v464h-140v-464h-142v576h525v-112h-101zM413 -235q114 0 180 68h-394q84 -68 214 -68z" />
    <glyph glyph-name="tmPUU" horiz-adv-x="1153" 
d="M790 -142h-141v142h-574v576h145v-460h425v460h145v-453q44 91 139 91q84 0 131.5 -67.5t47.5 -164.5q0 -156 -120.5 -247.5t-342.5 -91.5q-241 0 -483 127v117q102 -56 232.5 -93t250.5 -37q160 0 239 57t79 165q0 51 -21 84t-62 33q-42 0 -66 -31t-24 -88v-119z" />
    <glyph glyph-name="tmMUU" horiz-adv-x="1382" 
d="M310 479q-57 0 -89 -68q43 -38 89 -38q27 0 41.5 14.5t14.5 39.5q0 24 -15.5 38t-40.5 14zM1035 -1h-45q-7 -131 -117 -203t-288 -72q-129 0 -232.5 38t-170 104t-102 155t-35.5 193q0 160 73 266t196 106q69 0 117 -42t48 -119q0 -78 -45.5 -118.5t-120.5 -40.5
q-70 0 -120 44q-6 -45 -6 -96q0 -172 104 -275t294 -103q110 0 184 41t83 122l-322 1v575h142v-464h178v280q0 90 54.5 142t154.5 52q126 0 199.5 -89.5t73.5 -210.5q0 -138 -78 -212t-219 -74zM992 388v-277h31q87 0 127 42t40 132q0 76 -32 132t-97 56q-69 0 -69 -85z" />
    <glyph glyph-name="tmYUU" horiz-adv-x="1306" 
d="M943 -142h-141v142h-390v75q-49 -85 -150 -85q-80 0 -133.5 50.5t-53.5 137.5v398h142v-393q0 -37 21.5 -59t62.5 -22t62 22t21 60v392h142v-460h275v460h145l-2 -452q44 90 138 90q84 0 131.5 -67.5t47.5 -164.5q0 -156 -120.5 -247.5t-342.5 -91.5q-241 0 -483 127v117
q102 -56 232.5 -93t250.5 -37q160 0 239 57t79 165q0 51 -21 84t-62 33q-42 0 -66 -31t-24 -88v-119z" />
    <glyph glyph-name="tmRUU" horiz-adv-x="1382" 
d="M999 0h-142v464h-178v-464h-142v576h560v-112h-98v-175q42 85 139 85q86 0 142.5 -70t56.5 -170q0 -188 -166 -305t-434 -117q-205 0 -358.5 54.5t-243.5 169t-90 278.5q0 160 73 266t196 106q69 0 117 -42t48 -119q0 -78 -45.5 -118.5t-120.5 -40.5q-70 0 -120 44
q-6 -45 -6 -96q0 -99 44 -175.5t120.5 -122.5t174 -69t211.5 -23q202 0 328.5 84t126.5 223q0 56 -26 90.5t-77 34.5q-42 0 -66 -31t-24 -88v-137zM310 373q27 0 41.5 14.5t14.5 39.5q0 24 -15.5 38t-40.5 14q-57 0 -89 -68q43 -38 89 -38z" />
    <glyph glyph-name="tmLUU" horiz-adv-x="1637" 
d="M441 -242q157 0 217 75h-481q44 -32 114 -53.5t150 -21.5zM1245 -166h-101h-335q-74 -183 -368 -183q-123 0 -229 42t-166 102l-1 130h649q2 9 2 28v40q-81 13 -126 69.5t-45 142.5v99q0 170 -154 170q-87 0 -140 -55.5t-58 -144.5q15 30 51.5 51t80.5 21q71 0 117 -48
t46 -126q0 -80 -53.5 -131t-142.5 -51q-103 0 -167 76t-65 194q0 139 89 232.5t244 93.5q133 0 210.5 -73.5t76.5 -207.5v-109q3 -94 79 -94q93 0 93 157q0 167 -96 317h146q88 -141 88 -317q0 -96 -36.5 -161t-102.5 -91v-54q0 -19 -1 -28h270v651h527v-112h-100v-464h-142
v464h-140v-630zM205 171q0 -31 19 -49t48 -18q31 0 49 17.5t18 49.5t-18 49.5t-49 17.5q-29 0 -48 -18t-19 -49z" />
    <glyph glyph-name="tmVUU" horiz-adv-x="1337" 
d="M346 -230v117q102 -56 232.5 -93t250.5 -37q160 0 239 57t79 165q0 51 -21 84t-62 33q-38 0 -61.5 -25.5t-27.5 -71.5v-141h-141v142h-305v92q55 77 55 182q0 88 -52.5 144t-155.5 56q-94 0 -146 -54t-57 -146q15 30 51.5 51t80.5 21q71 0 117 -48t46 -126
q0 -80 -53.5 -131t-142.5 -51q-103 0 -167 76t-65 194q0 137 89 231.5t249 94.5q153 0 248 -88t93 -224q0 -94 -42 -162h156v464h142v-451q45 89 138 89q84 0 131.5 -67.5t47.5 -164.5q0 -156 -120.5 -247.5t-342.5 -91.5q-241 0 -483 127zM205 171q0 -31 19 -49t48 -18
q31 0 49 17.5t18 49.5t-18 49.5t-49 17.5q-29 0 -48 -18t-19 -49z" />
    <glyph glyph-name="tmLLLUU" horiz-adv-x="1402" 
d="M320 373q27 0 41.5 14.5t14.5 39.5q0 24 -15.5 38t-40.5 14q-57 0 -89 -68q43 -38 89 -38zM645 -293q-271 0 -430.5 131.5t-159.5 375.5q0 160 73 266t196 106q69 0 117 -42t48 -119q0 -78 -45.5 -118.5t-120.5 -40.5q-70 0 -120 44q-6 -45 -6 -96q0 -196 120.5 -295.5
t328.5 -99.5q95 0 239 33q69 16 86 19q-96 25 -96 108v20l-325 1v575h142v-464h178v280q0 90 54.5 142t154.5 52q126 0 199.5 -89.5t73.5 -210.5q0 -138 -78 -212t-219 -74h-38v-21q0 -40 21.5 -56.5t81.5 -16.5h77v-112h-10q-75 0 -231 -43t-311 -43zM1012 388v-277h31
q87 0 127 42t40 132q0 76 -32 132t-97 56q-69 0 -69 -85z" />
    <glyph glyph-name="tmLLUU" horiz-adv-x="1784" 
d="M310 373q27 0 41.5 14.5t14.5 39.5q0 24 -15.5 38t-40.5 14q-57 0 -89 -68q43 -38 89 -38zM928 -322q-269 0 -465.5 59t-307 180.5t-110.5 296.5q0 160 73 266t196 106q69 0 117 -42t48 -119q0 -78 -45.5 -118.5t-120.5 -40.5q-70 0 -120 44q-6 -45 -6 -96
q0 -107 55.5 -189.5t156 -133t233.5 -76t296 -25.5q134 0 252 22t211.5 64t148 111t54.5 157q0 49 -22 80.5t-61 31.5q-38 0 -61.5 -25.5t-27.5 -71.5v-159h-142v464h-141v-464h-142v293q0 70 -47.5 125.5t-129.5 55.5q-80 0 -126 -54t-51 -146q15 30 51.5 51t80.5 21
q71 0 117 -48t46 -126q0 -80 -53.5 -131t-142.5 -51q-103 0 -167 76t-65 194q0 135 79 230.5t214 95.5q76 0 129 -34t77 -87v111h513v-112h-100v-179q44 89 138 89q80 0 129.5 -66t49.5 -161q0 -92 -43 -169.5t-118.5 -132t-178 -93t-221.5 -56.5t-250 -18zM675 171
q0 -31 19 -49t48 -18q31 0 49 17.5t18 49.5t-18 49.5t-49 17.5q-29 0 -48 -18t-19 -49z" />
    <glyph glyph-name="tmRRUU" horiz-adv-x="1477" 
d="M401 -235q110 0 173 68h-367q69 -68 194 -68zM1085 -166h-101h-252q-100 -176 -334 -176q-96 0 -182.5 38.5t-139.5 98.5l-1 130h553q38 101 38 292q0 59 -3.5 100.5t-14 79.5t-31.5 57.5t-52 19.5t-49.5 -20t-18.5 -54v-400h-142v400q0 36 -18 55t-50 19
q-31 0 -50 -18.5t-19 -54.5v-401h-143v392q0 93 50 143.5t144 50.5q67 0 106.5 -32t50.5 -77q10 44 49 76.5t102 32.5q65 0 112 -31t72 -85.5t36.5 -117.5t11.5 -138q0 -173 -37 -289h168v651h527v-112h-100v-464h-142v464h-140v-630z" />
    <glyph glyph-name="tmNNNUU" horiz-adv-x="1871" 
d="M199 171q0 -31 18.5 -49t47.5 -18q31 0 49.5 17.5t18.5 49.5t-18.5 49.5t-49.5 17.5q-29 0 -47.5 -18t-18.5 -49zM512 217q0 139 75 238q-57 19 -123 19q-125 0 -207 -59t-89 -159q12 36 46.5 63t84.5 27q71 0 117 -48t46 -126q0 -81 -53 -131.5t-143 -50.5
q-100 0 -162.5 65t-63.5 180q0 155 118 253t308 98q117 0 217 -45q79 45 175 45q160 0 249 -102t89 -271q0 -167 -58 -288h195v651h528v-112h-100v-464h-142v464h-141v-630h-101h-296q-158 -192 -510 -192q-151 0 -278.5 31.5t-252.5 105.5v146h953q58 103 58 288
q0 117 -45 189t-144 72q-37 0 -66 -10q115 -107 115 -251q0 -106 -56 -164.5t-143 -58.5t-143.5 61t-56.5 166zM712 102q30 0 47.5 30.5t17.5 81.5q0 103 -81 178q-50 -71 -50 -174q0 -116 66 -116zM571 -251q230 0 342 85l-742 -1q168 -84 400 -84z" />
    <glyph glyph-name="tmSHUU" horiz-adv-x="1797" 
d="M862 102q101 0 101 156v202h-167v-294q0 -64 66 -64zM1707 257h-130q58 94 58 196q0 76 -46.5 121t-125.5 45q-84 0 -127 -43h25q80 0 129 -41t49 -117q0 -69 -44 -113.5t-123 -44.5q-89 0 -141.5 57.5t-53.5 146.5h-73v-206q0 -129 -64.5 -198.5t-183.5 -69.5
q-96 0 -149 48t-53 128v294h-129v-202q0 -129 -64.5 -198.5t-183.5 -69.5q-96 0 -149 48t-53 128v410h142v-410q0 -64 66 -64q101 0 101 156v318h816q31 68 100.5 106.5t164.5 38.5q136 0 214.5 -72t77.5 -196q0 -118 -50 -196zM1372 363q24 0 38.5 14t14.5 37q0 48 -68 50
h-60q1 -47 21 -74t54 -27z" />
    <glyph glyph-name="tmJUU" horiz-adv-x="1529" 
d="M676 -25q-43 0 -78.5 -20t-62.5 -48.5t-57 -57t-77.5 -48.5t-108.5 -20q-106 0 -171.5 55.5t-65.5 147.5q0 115 88.5 173t245.5 58h94q112 0 173 43t61 131q0 40 -20.5 64t-57.5 24q-39 0 -60 -35.5t-21 -91.5v-57h-139v33q0 67 -39 108.5t-113 41.5q-37 0 -58 -16
t-21 -45q0 -56 75 -56q35 0 72 10v-109q-35 -11 -88 -11q-82 0 -135 41t-53 123q0 78 57 125.5t146 47.5q179 0 215 -153q10 71 57 112t116 41q43 0 74 -10h208q31 68 100.5 106.5t164.5 38.5q136 0 214.5 -72t77.5 -196q0 -118 -50 -196h-130q58 94 58 196q0 76 -46.5 121
t-125.5 45q-84 0 -127 -43h25q80 0 129 -41t49 -117q0 -69 -44 -113.5t-123 -44.5q-89 0 -141.5 57.5t-53.5 146.5h-65q13 -35 13 -78q0 -132 -99.5 -207.5t-239.5 -75.5h-101q-220 0 -220 -120q0 -41 27.5 -65.5t71.5 -24.5q33 0 64.5 20t59.5 48.5t60.5 57t82 48.5
t108.5 20q87 0 140.5 -42.5t53.5 -115.5q0 -74 -48.5 -114t-127.5 -40q-53 0 -90 14v106q42 -10 73 -10q70 0 70 47q0 43 -66 43zM1104 363q24 0 38.5 14t14.5 37q0 48 -68 50h-60q1 -47 21 -74t54 -27z" />
    <glyph glyph-name="tmSSUU" horiz-adv-x="1912" 
d="M1822 257h-130q58 94 58 196q0 76 -46.5 121t-125.5 45q-84 0 -127 -43h25q80 0 129 -41t49 -117q0 -69 -44 -113.5t-123 -44.5q-89 0 -141.5 57.5t-53.5 146.5h-96v112h119q31 68 100.5 106.5t164.5 38.5q136 0 214.5 -72t77.5 -196q0 -118 -50 -196zM1487 363
q24 0 38.5 14t14.5 37q0 48 -68 50h-60q1 -47 21 -74t54 -27zM1306 0h-100v-191h-135v191h-541v92h-1q55 77 55 182q0 88 -52.5 144t-155.5 56q-94 0 -146 -54t-57 -146q15 30 51.5 51t80.5 21q71 0 117 -48t46 -126q0 -80 -53.5 -131t-142.5 -51q-103 0 -167 76t-65 194
q0 137 89 231.5t249 94.5q153 0 248 -88t93 -224q0 -94 -42 -162h192q-86 52 -86 161q0 99 63.5 164t171.5 65q89 0 138.5 -47t49.5 -126v-217h100v-112zM923 272q0 -73 40 -116.5t108 -43.5v223q0 57 -54 57q-44 0 -69 -34.5t-25 -85.5zM205 171q0 -31 19 -49t48 -18
q31 0 49 17.5t18 49.5t-18 49.5t-49 17.5q-29 0 -48 -18t-19 -49z" />
    <glyph glyph-name="tmSUU" horiz-adv-x="2004" 
d="M1069 465v111h266q31 68 100.5 106.5t164.5 38.5q136 0 214.5 -72t77.5 -196q0 -118 -50 -196h-130q58 94 58 196q0 76 -46.5 121t-125.5 45q-84 0 -127 -43h25q80 0 129 -41t49 -117q0 -69 -44 -113.5t-123 -44.5q-89 0 -141.5 57.5t-53.5 146.5h-100q35 -100 35 -198
q0 -128 -61.5 -202t-170.5 -74q-100 0 -156.5 59t-56.5 156v196q0 35 -19 54t-49 19t-49.5 -18.5t-19.5 -53.5v-402h-142v311q0 70 -43.5 116.5t-125.5 46.5q-80 0 -128 -55.5t-53 -144.5q15 30 51.5 51t80.5 21q71 0 117 -48t46 -126q0 -80 -53.5 -131t-142.5 -51
q-103 0 -167 76t-65 194q0 139 83 232.5t231 93.5q79 0 137 -34.5t87 -94.5q16 59 60 94t109 35q86 0 138 -53.5t52 -141.5v-195q3 -94 79 -94q93 0 93 164q0 103 -40 199zM205 171q0 -31 19 -49t48 -18q31 0 49 17.5t18 49.5t-18 49.5t-49 17.5q-29 0 -48 -18t-19 -49z
M1507 363q24 0 38.5 14t14.5 37q0 48 -68 50h-60q1 -47 21 -74t54 -27z" />
    <glyph glyph-name="tmHUU" horiz-adv-x="2343" 
d="M1873 330q29 0 45 18t16 49q0 65 -96 67h-55v-9q0 -57 22.5 -91t67.5 -34zM2252 214h-143q31 48 50 109t19 117q0 86 -53 138t-152 52q-102 0 -150 -54h30q90 0 150 -47.5t60 -130.5q0 -81 -51 -131.5t-139 -50.5q-102 0 -162 66t-61 175v7h-123q40 -81 40 -201
q0 -103 -22 -186t-70 -150t-133.5 -104t-203.5 -37q-177 0 -425.5 9.5t-423.5 9.5q-159 0 -272 -50v119q99 43 270 43q178 0 427.5 -9.5t423.5 -9.5q83 0 140 27t87.5 78.5t43.5 114t13 145.5q0 100 -22 155.5t-77 55.5q-31 0 -49.5 -20t-18.5 -54v-400h-142v400
q0 36 -18 55t-50 19q-31 0 -50 -18.5t-19 -54.5v-401h-447v92q55 77 55 182q0 88 -52.5 144t-155.5 56q-94 0 -146 -54t-57 -146q15 30 51.5 51t80.5 21q71 0 117 -48t46 -126q0 -80 -53.5 -131t-142.5 -51q-103 0 -167 76t-65 194q0 137 89 231.5t249 94.5q153 0 248 -88
t93 -224q0 -94 -42 -162h156v280q0 93 50 143.5t144 50.5q67 0 106.5 -32t50.5 -77q10 44 49 76.5t102 32.5q39 0 69 -10h270q35 78 112.5 122t188.5 44q154 0 246 -82.5t92 -219.5q0 -135 -61 -226zM205 171q0 -31 19 -49t48 -18q31 0 49 17.5t18 49.5t-18 49.5t-49 17.5
q-29 0 -48 -18t-19 -49z" />
    <glyph glyph-name="tmKSSUU" horiz-adv-x="2782" 
d="M1910 0h-100v-191h-135v191h-541v92h-1q55 77 55 182q0 88 -53 144t-156 56q-144 0 -186 -124h76q89 0 146 -47t57 -131q0 -80 -53.5 -131t-142.5 -51q-99 0 -161 67.5t-68 180.5h-103q-2 -116 -72 -186t-207 -70q-107 0 -168.5 48t-61.5 137q0 120 99 162v247h509v-112
h-99v-114h113q26 105 109 170.5t215 65.5q153 0 248.5 -88t93.5 -224q0 -94 -42 -162h192q-86 52 -86 161q0 99 63.5 164t171.5 65q89 0 138.5 -47t49.5 -126v-217h100v-112zM1527 272q0 -73 40 -116.5t108 -43.5v223q0 57 -54 57q-44 0 -69 -34.5t-25 -85.5zM274 465v-115
h130v115h-130zM876 104q31 0 49 17.5t18 49.5t-24 49t-65 18h-74q3 -62 28.5 -98t67.5 -36zM266 95q138 0 138 143h-142q-87 0 -87 -71q0 -37 25 -54.5t66 -17.5zM2620 257h-130q58 94 58 196q0 76 -46.5 121t-125.5 45q-84 0 -127 -43h25q80 0 129 -41t49 -117
q0 -69 -44 -113.5t-123 -44.5q-89 0 -141.5 57.5t-53.5 146.5h-196v112h219q31 68 100.5 106.5t164.5 38.5q136 0 214.5 -72t77.5 -196q0 -118 -50 -196zM2285 363q24 0 38.5 14t14.5 37q0 48 -68 50h-60q1 -47 21 -74t54 -27z" />
    <glyph glyph-name="tmSHRII" horiz-adv-x="1961" 
d="M1146 576h306q-82 43 -82 131q0 97 77.5 157t197.5 60q89 0 142.5 -43t53.5 -113q0 -60 -40 -97t-108 -37q-67 0 -107.5 40.5t-40.5 96.5q0 14 3 29q-58 -39 -58 -111q0 -55 39 -84t104 -29h63v-112h-98v-190q46 90 139 90q80 0 129.5 -65t49.5 -159q0 -101 -52 -184
t-139 -138.5t-204 -93.5t-244.5 -55t-263.5 -17q-246 0 -432 41t-301 117t-172.5 178.5t-57.5 230.5q0 196 108 355h152q-118 -171 -118 -355q0 -214 202 -334.5t619 -120.5q142 0 271 20.5t241.5 62.5t179 116.5t66.5 173.5q0 48 -23 78.5t-60 30.5q-38 0 -61.5 -26.5
t-27.5 -74.5v-145h-144v460h-195v-460h-142v392q0 38 -21 60t-62 22t-62.5 -22t-21.5 -59v-393h-520v576h145v-460h233v282q0 87 53.5 137.5t133.5 50.5q101 0 150 -85v75zM1735 769q0 26 -23.5 41.5t-66.5 15.5h-11q-1 -5 -1 -15q0 -39 16 -61t44 -22q42 0 42 41z" />
    <glyph glyph-name="tmNNAA.traditional" horiz-adv-x="1998" 
d="M505 171q0 -31 18.5 -49t47.5 -18q31 0 49.5 17.5t18.5 49.5t-18.5 49.5t-49.5 17.5q-29 0 -47.5 -18t-18.5 -49zM202 227q0 -84 26.5 -154.5t71.5 -121.5t108 -91t132 -64.5t148 -41t151 -23t146 -6.5q261 0 441.5 52t281 167t100.5 290q0 66 -16.5 117.5t-60 87
t-110.5 35.5q-37 0 -66 -10q113 -107 113 -251q0 -106 -56 -164.5t-143 -58.5t-143.5 61t-56.5 166q0 140 78 241q-53 16 -107 16q-66 0 -125 -24q102 -107 102 -244q0 -103 -56 -159.5t-142 -56.5t-143.5 56t-57.5 160q0 133 96 240q-65 28 -145 28q-122 0 -200 -51.5
t-93 -142.5q41 66 126 66q72 0 119 -48t47 -126q0 -81 -53 -131.5t-143 -50.5q-100 0 -162.5 65t-63.5 180q0 155 116.5 253t308.5 98q136 0 243 -59q104 59 227 59q108 0 201 -45q78 45 175 45q159 0 247.5 -98.5t88.5 -253.5q0 -616 -968 -616q-133 0 -258 18t-248 63
t-214.5 112.5t-148 174.5t-56.5 241q0 99 30.5 191.5t77.5 157.5h152q-118 -172 -118 -349zM1469 102q30 0 47.5 30.5t17.5 81.5q0 107 -78 180q-53 -71 -53 -176q0 -116 66 -116zM1018 102q65 0 65 103q0 99 -68 172q-63 -72 -63 -172q0 -48 17 -75.5t49 -27.5z" />
    <glyph glyph-name="tmRRAA.traditional" horiz-adv-x="1187" 
d="M737 477q10 45 52.5 77t118.5 32q92 0 154 -50.5t62 -136.5q0 -27 -12 -70t-12 -66q0 -29 26 -86.5t26 -103.5q0 -176 -141 -279t-376 -103q-272 0 -423.5 142.5t-151.5 382.5q0 100 31 197.5t78 161.5h152q-54 -75 -86.5 -169t-32.5 -190q0 -199 110.5 -306t322.5 -107
q168 0 271 72t103 200q0 43 -27 99t-27 89q0 25 13.5 66t13.5 64q0 37 -26 59t-68 22q-35 0 -57.5 -20t-22.5 -54v-400h-142v400q0 36 -18 55t-50 19q-31 0 -50 -18.5t-19 -54.5v-401h-143v392q0 93 50 143.5t144 50.5q67 0 106.5 -32t50.5 -77z" />
    <glyph glyph-name="tmNNNAA.traditional" horiz-adv-x="1526" 
d="M484 171q0 -31 18.5 -49t47.5 -18q31 0 49.5 17.5t18.5 49.5t-18.5 49.5t-49.5 17.5q-29 0 -47.5 -18t-18.5 -49zM202 227q0 -110 46.5 -197t127 -140.5t184.5 -81.5t224 -28q274 0 418 109t144 328q0 115 -49.5 186t-149.5 71q-37 0 -66 -10q115 -107 115 -251
q0 -106 -56 -164.5t-143 -58.5t-143.5 61t-56.5 166q0 139 75 238q-57 19 -123 19q-125 0 -207 -59t-89 -159q12 36 46.5 63t84.5 27q71 0 117 -48t46 -126q0 -81 -53 -131.5t-143 -50.5q-100 0 -162.5 65t-63.5 180q0 155 118 253t308 98q117 0 217 -45q79 45 175 45
q162 0 255 -101t93 -268q0 -137 -51.5 -242t-146.5 -170.5t-223 -98.5t-286 -33q-155 0 -286 36t-229 104t-153.5 174t-55.5 240q0 198 103 349h152q-113 -172 -113 -349zM997 102q30 0 47.5 30.5t17.5 81.5q0 103 -81 178q-50 -71 -50 -174q0 -116 66 -116z" />
    <glyph glyph-name="tmNNAI.traditional" horiz-adv-x="2216" 
d="M161 656q0 -24 14.5 -38.5t38.5 -14.5t38.5 14.5t14.5 38.5t-14.5 38.5t-38.5 14.5t-38.5 -14.5t-14.5 -38.5zM799 -10q-104 0 -166 68q-138 -68 -307 -68q-131 0 -208 59.5t-77 151.5q0 59 29 104.5t73 72t94.5 53t94.5 48t73 57t29 79.5q0 115 -119 115q41 -30 41 -86
q0 -59 -42 -97t-109 -38q-68 0 -109 42t-41 104q0 75 66 128t186 53q112 0 190.5 -63.5t78.5 -156.5q0 -79 -40.5 -137.5t-98 -90.5t-115 -58t-98 -57t-40.5 -70q0 -47 38.5 -69.5t102.5 -22.5q130 0 255 57q-7 29 -7 67q0 155 116.5 253t308.5 98q136 0 243 -59
q104 59 227 59q124 0 231 -62q104 52 235 52h272v-112h-100v-464h-142v464h-26q-77 0 -138 -21q95 -105 95 -236q0 -104 -57.5 -160.5t-141.5 -56.5t-142 57t-58 160q0 143 99 242q-61 25 -128 25q-66 0 -125 -24q102 -107 102 -244q0 -103 -56 -159.5t-142 -56.5t-143.5 56
t-57.5 160q0 133 96 240q-65 28 -145 28q-122 0 -200 -51.5t-93 -142.5q41 66 126 66q72 0 119 -48t47 -126q0 -81 -53 -131.5t-143 -50.5zM1696 102q30 0 47.5 28t17.5 78q0 97 -65 170q-66 -69 -66 -170q0 -50 17.5 -78t48.5 -28zM1245 102q65 0 65 103q0 99 -68 172
q-63 -72 -63 -172q0 -48 17 -75.5t49 -27.5zM732 171q0 -31 18.5 -49t47.5 -18q31 0 49.5 17.5t18.5 49.5t-18.5 49.5t-49.5 17.5q-29 0 -47.5 -18t-18.5 -49z" />
    <glyph glyph-name="tmLAI.traditional" horiz-adv-x="1636" 
d="M161 656q0 -24 14.5 -38.5t38.5 -14.5t38.5 14.5t14.5 38.5t-14.5 38.5t-38.5 14.5t-38.5 -14.5t-14.5 -38.5zM593 260q0 139 89 232.5t244 93.5q133 0 210.5 -73.5t76.5 -207.5v-109q3 -94 79 -94q93 0 93 157q0 167 -96 317h146q88 -141 88 -317q0 -127 -62 -198
t-170 -71q-100 0 -156.5 59t-56.5 156v99q0 170 -154 170q-87 0 -140 -55.5t-58 -144.5q15 30 51.5 51t80.5 21q71 0 117 -48t46 -126q0 -80 -53.5 -131t-142.5 -51q-106 0 -170 80q-59 -34 -147.5 -57t-181.5 -23q-131 0 -208 59.5t-77 151.5q0 59 29 104.5t73 72t94.5 53
t94.5 48t73 57t29 79.5q0 115 -119 115q41 -30 41 -86q0 -59 -42 -97t-109 -38q-68 0 -109 42t-41 104q0 75 66 128t186 53q112 0 190.5 -63.5t78.5 -156.5q0 -79 -40.5 -137.5t-98 -90.5t-115 -58t-98 -57t-40.5 -70q0 -47 38.5 -69.5t102.5 -22.5q144 0 277 68
q-9 38 -9 81zM758 171q0 -31 19 -49t48 -18q31 0 49 17.5t18 49.5t-18 49.5t-49 17.5q-29 0 -48 -18t-19 -49z" />
    <glyph glyph-name="tmLLAI.traditional" horiz-adv-x="1618" 
d="M161 656q0 -24 14.5 -38.5t38.5 -14.5t38.5 14.5t14.5 38.5t-14.5 38.5t-38.5 14.5t-38.5 -14.5t-14.5 -38.5zM828 -10q-107 0 -171 81q-59 -34 -148.5 -57.5t-182.5 -23.5q-131 0 -208 59.5t-77 151.5q0 59 29 104.5t73 72t94.5 53t94.5 48t73 57t29 79.5
q0 115 -119 115q41 -30 41 -86q0 -59 -42 -97t-109 -38q-68 0 -109 42t-41 104q0 75 66 128t186 53q112 0 190.5 -63.5t78.5 -156.5q0 -79 -40.5 -137.5t-98 -90.5t-115 -58t-98 -57t-40.5 -70q0 -47 38.5 -69.5t102.5 -22.5q145 0 280 70q-9 36 -9 79q0 135 79 230.5
t214 95.5q76 0 129 -34t77 -87v111h513v-112h-100v-464h-142v464h-141v-464h-142v293q0 70 -47.5 125.5t-129.5 55.5q-80 0 -126 -54t-51 -146q15 30 51.5 51t80.5 21q71 0 117 -48t46 -126q0 -80 -53.5 -131t-142.5 -51zM761 171q0 -31 19 -49t48 -18q31 0 49 17.5t18 49.5
t-18 49.5t-49 17.5q-29 0 -48 -18t-19 -49z" />
    <glyph glyph-name="tmNNNAI.traditional" horiz-adv-x="1763" 
d="M161 656q0 -24 14.5 -38.5t38.5 -14.5t38.5 14.5t14.5 38.5t-14.5 38.5t-38.5 14.5t-38.5 -14.5t-14.5 -38.5zM1247 -10q-88 0 -144.5 56t-56.5 160q0 143 92 243q-62 25 -139 25q-125 0 -207 -59t-89 -159q12 36 46.5 63t84.5 27q71 0 117 -48t46 -126q0 -81 -53 -131.5
t-143 -50.5q-105 0 -166 69q-136 -69 -309 -69q-131 0 -208 59.5t-77 151.5q0 59 29 104.5t73 72t94.5 53t94.5 48t73 57t29 79.5q0 115 -119 115q41 -30 41 -86q0 -59 -42 -97t-109 -38q-68 0 -109 42t-41 104q0 75 66 128t186 53q112 0 190.5 -63.5t78.5 -156.5
q0 -79 -40.5 -137.5t-98 -90.5t-115 -58t-98 -57t-40.5 -70q0 -47 38.5 -69.5t102.5 -22.5q128 0 257 58q-7 29 -7 66q0 155 118 253t308 98q135 0 243 -58q94 48 218 48h291v-112h-100v-464h-142v464h-45q-67 0 -118 -17q97 -105 97 -241q0 -103 -55.5 -159.5t-142.5 -56.5
zM1246 102q65 0 65 103q0 101 -70 176q-61 -68 -61 -176q0 -48 17 -75.5t49 -27.5zM734 171q0 -31 18.5 -49t47.5 -18q31 0 49.5 17.5t18.5 49.5t-18.5 49.5t-49.5 17.5q-29 0 -47.5 -18t-18.5 -49z" />
    <glyph glyph-name="tmRA.alt" horiz-adv-x="645" 
d="M537 0h-142v464h-178v-464h-142v576h560v-112h-98v-464z" />
    <glyph glyph-name="tmRI.alt" horiz-adv-x="937" 
d="M537 0h-142v464h-178v-464h-142v576h296q-18 28 -18 65q0 78 63.5 125t165.5 47q130 0 205 -68.5t75 -180.5v-564h-142v564q0 65 -35.5 101t-101.5 36q-43 0 -68.5 -16.5t-25.5 -49.5q0 -27 19 -43t55 -16h72v-112h-98v-464z" />
    <glyph glyph-name="tmRII.alt" horiz-adv-x="645" 
d="M537 0h-142v464h-178v-464h-142v576h279q-82 43 -82 131q0 97 77.5 157t197.5 60q89 0 142.5 -43t53.5 -113q0 -60 -40 -97t-108 -37q-67 0 -107.5 40.5t-40.5 96.5q0 14 3 29q-58 -39 -58 -111q0 -55 39 -84t104 -29h100v-112h-98v-464zM637 769q0 26 -23.5 41.5
t-66.5 15.5h-11q-1 -5 -1 -15q0 -39 16 -61t44 -22q42 0 42 41z" />
  </font>
</defs>
</svg>
